Zathura- A space adventure (2005) Sehrawat.Vkas3385

seeders: 0
leechers: 0
Added on Jul 4, 2010 in Movies
Torrent verified. Downloaded 0 times.

Summary:
Danny and Walter are two brothers who barely get along even while driving their parents to distraction as their older sister tries to ignore them. Despite their squabbling, the brothers manage cooperate enough to play an old mechanical board game named Zathura. However, after their first move, they find that the game has apparently flung them, their sister and their entire house into outer space. Furthermore, the brothers surmise the only way to return home is to finish the game. However with almost every move, new dangers arise as the siblings find themselves learning to cooperate in ways they never expected as they realize what they mean to each other.
Written by Aroooo58.4K
report summary
Available in versions: 1080p720pHDRiPDVDRipx264
Zathura- A space adventure (2005) Sehrawat.Vkas3385 (Size: 796.33 MB)
  Zathura - A Space Adventure (2005).avi 795.59 MB
  Zathura - A Space Adventure (2005).avi_snapshot_00.18.24_[2010.06.24_07.09.25].jpg 40.7 KB
  Zathura - A Space Adventure (2005).avi_snapshot_00.25.51_[2010.06.24_07.10.15].jpg 28.97 KB
  Zathura - A Space Adventure (2005).avi_snapshot_00.30.25_[2010.06.24_07.11.21].jpg 29.71 KB
  Zathura - A Space Adventure (2005).avi_snapshot_00.39.10_[2010.06.24_07.12.21].jpg 29.67 KB
  Zathura - A Space Adventure (2005).avi_snapshot_00.46.51_[2010.06.24_07.12.43].jpg 34.56 KB
  Zathura - A Space Adventure (2005).avi_snapshot_01.10.10_[2010.06.24_07.13.30].jpg 20.93 KB
  Zathura - A Space Adventure (2005).avi_thumbs_[2010.06.24_07.14.35].jpg 562.48 KB
  Zathura - A Space Adventure (2005).txt 6.6 KB

Description

General
Complete name : Zathura- A space adventure (2005) DVDRip
Sehrawat.Vkas3385
Format : AVI
Format/Info : Audio Video Interleave
File size : 796 MiB
Duration : 1h 41mn
Overall bit rate : 1 098 Kbps
Writing application : VirtualDubMod 1.5.10.2 (build 2542/release)
Writing library : VirtualDubMod build 2542/release

Video
ID : 0
Format : MPEG-4 Visual
Format profile : Advanced Simple@L5
Format settings, BVOP : Yes
Format settings, QPel : No
Format settings, GMC : No warppoints
Format settings, Matrix : Default (H.263)
Muxing mode : Packed bitstream
Codec ID : XVID
Codec ID/Hint : XviD
Duration : 1h 41mn
Bit rate : 793 Kbps
Width : 640 pixels
Height : 336 pixels
Display aspect ratio : 1.905
Frame rate : 23.976 fps
Color space : YUV
Chroma subsampling : 4:2:0
Bit depth : 8 bits
Scan type : Progressive
Bits/(Pixel*Frame) : 0.154
Stream size : 575 MiB (72%)
Writing library : XviD 1.1.0 (UTC 2005-11-22)

Audio #1
ID : 1
Format : MPEG Audio
Format version : Version 1
Format profile : Layer 3
Mode : Joint stereo
Mode extension : MS Stereo
Codec ID : 55
Codec ID/Hint : MP3
Duration : 1h 41mn
Bit rate mode : Variable
Bit rate : 159 Kbps
Minimum bit rate : 128 Kbps
Channel(s) : 2 channels
Sampling rate : 48.0 KHz
Stream size : 115 MiB (14%)
Alignment : Aligned on interleaves
Interleave, duration : 24 ms (0.58 video frame)
Interleave, preload duration : 115 ms
Writing library : LAME3.97b
Encoding settings : -m j -V 2 -q 3 -lowpass 18.6 --vbr-new -b 128

Audio #2
ID : 2
Format : MPEG Audio
Format version : Version 1
Format profile : Layer 3
Mode : Joint stereo
Mode extension : MS Stereo
Codec ID : 55
Codec ID/Hint : MP3
Duration : 1h 41mn
Bit rate mode : Constant
Bit rate : 128 Kbps
Channel(s) : 2 channels
Sampling rate : 44.1 KHz
Stream size : 92.8 MiB (12%)
Alignment : Split accross interleaves
Interleave, duration : 42 ms (1.00 video frame)
Interleave, preload duration : 500 ms
Writing library : LAME3.97

ScreenShots:
http://img808.imageshack.us/.../zathuraaspaceadventure2.jpg
http://img687.imageshack.us/.../zathuraaspaceadventure2.jpg
http://img535.imageshack.us/.../zathuraaspaceadventure2.jpg
http://img710.imageshack.us/.../zathuraaspaceadventure2.jpg
http://img34.imageshack.us/i.../zathuraaspaceadventure2.jpg
http://img693.imageshack.us/.../zathuraaspaceadventure2.jpg
http://img28.imageshack.us/i.../zathuraaspaceadventure2.jpg

Sharing Widget


Download torrent
796.33 MB
seeders:0
leechers:0
Zathura- A space adventure (2005) Sehrawat.Vkas3385

Trackers

tracker name Status checked seeders leechers downloads
http://tracker.openbittorrent.com/announce
outdated 16 Aug 2010 - - -
udp://tracker.publicbt.com:80/announce
outdated 04 Jul 2010 - - -
udp://tracker.openbittorrent.com:80/announce
outdated 04 Jul 2010 - - -
http://tracker.publicbt.com/announce
deleted 17 Aug 2011 - - -
ĀµTorrent compatible trackers list

Locations

name
ThePirateBay
Torrent hash: 8db42af967fe50ef95c7ffba1eaa63ae2a423cb2

All Comments

audio
10/10
video
10/10
please, leave only comments related to that torrent
or sign-in
0
Naskal5557 • 18 April 2012, 14:38
torrent downloaded
Show comment
audio: 10video: 10

User Opinions

Naskal5557
Report a bug