Wrecked 2011 XViD DVDRip DTRG

seeders: 0
leechers: 0
updated:
Added by DTRG2778 in Movies
Torrent verified. Downloaded 0 times.

Summary:

A man trapped in a car wreck at the bottom of a ravine must overcome incredible odds to survive.

Written by 5fingerdis65.72K
Available in versions: 1080p720pHDRiPDVDRip
Wrecked 2011 XViD DVDRip DTRG (Size: 1.16 GB)
  read me.txt 91 bytes
  Torrent downloaded from Demonoid.me.txt 46 bytes
  Wrecked 2011 XViD DVDRip DTRG.avi 1.16 GB

Description

http://www.leetleech.org/images/09929111015124408522.jpg



http://leetleech.org/images/48874973695367351744.png



Format : AVI
Format/Info : Audio Video Interleave
File size : 1.16 GiB
Duration : 1h 29mn
Overall bit rate : 1 855 Kbps
Writing application : VirtualDubMod 1.5.10.2 (build 2540/release)
Writing library : VirtualDub build 32842/release

Video
ID : 0
Format : MPEG-4 Visual
Format profile : Advanced Simple@L5
Format settings, BVOP : 2
Format settings, QPel : No
Format settings, GMC : No warppoints
Format settings, Matrix : Default (H.263)
Muxing mode : Packed bitstream
Codec ID : XVID
Codec ID/Hint : XviD
Duration : 1h 29mn
Bit rate : 1 718 Kbps
Width : 656 pixels
Height : 272 pixels
Display aspect ratio : 2.40:1
Frame rate : 23.976 fps
Color space : YUV
Chroma subsampling : 4:2:0
Bit depth : 8 bits
Scan type : Progressive
Compression mode : Lossy
Bits/(Pixel*Frame) : 0.401
Stream size : 1.08 GiB (93%)
Writing library : XviD 64

Audio
ID : 1
Format : MPEG Audio
Format version : Version 1
Format profile : Layer 3
Mode : Joint stereo
Codec ID : 55
Codec ID/Hint : MP3
Duration : 1h 29mn
Bit rate mode : Constant
Bit rate : 128 Kbps
Channel(s) : 2 channels
Sampling rate : 48.0 KHz
Compression mode : Lossy
Stream size : 82.1 MiB (7%)
Alignment : Aligned on interleaves
Interleave, duration : 42 ms (1.00 video frame)
Interleave, preload duration : 504 ms
Writing library : LAME3.97
Encoding settings : -m j -V 4 -q 2 -lowpass 17 -b 128






http://www.imdb.com/title/tt1316622/




http://leetleech.org/images/89524873606771859129.png




Storyline

A man awakens in a mangled car-wreck at the bottom of a steep cliff. Injured and trapped inside, with no memory of how he got there or who he is, he must rely on his most primal instincts to survive. But as he attempts to free himself from the carnage and escape an impossible situation, a darker side is revealed. Even if he manages to survive, the man may have to face the horrible consequences of an earlier, forgotten life.




http://leetleech.org/images/95521316153253938506.png




http://www.leetleech.org/images/04928485542842272806.png

http://www.leetleech.org/images/39797861759421546546.png

http://www.leetleech.org/images/57717546524343496878.png






Source Used


Nogrp or scenelovers whichever it is ................. Thanks




Yes its in English



Enjoy





Greetz to IMAGiNE,Flawl3ss,DiLLoN,BDK,NOiR,TOXiC,THC,Ez,Rx,Boobyblue,TaRiQ786,BHRG





image





http://lulzimg.com/i10/fd4fad.gif



Currently looking for encoders/syncers if anything to offer contact me on dtrg@hush.ai








Related Torrents

torrent name size files age seed leech

Sharing Widget


Download torrent
1.16 GB
seeders:0
leechers:0
Wrecked 2011 XViD DVDRip DTRG



To share this torrent use the code below and insert it into comments, status messages, forum posts or your signature.

Torrent: Wrecked 2011 XViD DVDRip DTRG

Trackers

tracker name
http://tracker.istole.it/announce
udp://tracker.openbittorrent.com:80/announce
http://tracker.openbittorrent.com/announce
http://inferno.demonoid.me:3396/announce
udp://tracker.istole.it:80/announce
udp://tracker.publicbt.com:80/announce
http://tracker.publicbt.com/announce
http://genesis.1337x.org/announce
ĀµTorrent compatible trackers list

Locations

name
KickassTorrents
Torrent hash: D6630B316F8A32F9007EF00FC211FF9E66069CF6

All Comments

audio
6/10
video
6/10
please, leave only comments related to that torrent
Sign In

audio: 9video: 9
Brilliant
audio: 2video: 2
awful
audio: 3video: 3
this is cam qouality NO DVDRip
the title is Fake .waste of time
Overall bit rate: 804 Kbps
Bits/(Pixel*Frame: 0.149
audio: 9video: 9
Great job, thank you

User Opinions

Missy14310.2K, Usbdriver5141, Fireman58444525, Tintapper4115, mkfatpants3686, dolfo521132, tavomr434, shuck254, zoolmanJack183, phunknasty60 ... And 2 more
Intelinside117
Report a bug Open chat