Wrath Of The Titans 2012 TS NEW SOURCE XViD DTRG

seeders: 3
leechers: 1
updated:
Added by legend65.97K in Movies
Torrent verified. Downloaded 10 times.

Summary:

Perseus braves the treacherous underworld to rescue his father, Zeus, captured by his son, Ares, and brother Hades who unleash the ancient Titans upon the world.

Written by Thhaque408K
Wrath Of The Titans 2012 TS NEW SOURCE XViD DTRG (Size: 1.45 GB)
  sample.avi 13.77 MB
  Torrent downloaded from extratorrent.com.txt 353 bytes
  Wrath Of The Titans 2012 TS NEW SOURCE XViD DTRG.avi 1.43 GB

Description






image




Format : AVI
Format/Info : Audio Video Interleave
File size : 1.43 GiB
Duration : 1h 30mn
Overall bit rate : 2 271 Kbps
Writing library : VirtualDub build 32842/release

Video
ID : 0
Format : MPEG-4 Visual
Format profile : Advanced Simple@L5
Format settings, BVOP : 2
Format settings, QPel : No
Format settings, GMC : No warppoints
Format settings, Matrix : Default (H.263)
Muxing mode : Packed bitstream
Codec ID : XVID
Codec ID/Hint : XviD
Duration : 1h 30mn
Bit rate : 2 132 Kbps
Width : 672 pixels
Height : 342 pixels
Display aspect ratio : 1.965
Frame rate : 29.970 fps
Color space : YUV
Chroma subsampling : 4:2:0
Bit depth : 8 bits
Scan type : Progressive
Compression mode : Lossy
Bits/(Pixel*Frame) : 0.309
Stream size : 1.34 GiB (94%)
Writing library : XviD 64

Audio
ID : 1
Format : MPEG Audio
Format version : Version 1
Format profile : Layer 3
Mode : Joint stereo
Mode extension : MS Stereo
Codec ID : 55
Codec ID/Hint : MP3
Duration : 1h 30mn
Bit rate mode : Constant
Bit rate : 128 Kbps
Channel(s) : 2 channels
Sampling rate : 44.1 KHz
Compression mode : Lossy
Stream size : 82.6 MiB (6%)
Alignment : Split accross interleaves
Interleave, duration : 33 ms (1.00 video frame)
Interleave, preload duration : 500 ms








http://www.imdb.com/title/tt1646987/










Ratings: 6.5/10 from 3,181 users Metascore: 37/100
Reviews: 76 user | 88 critic | 32 from Metacritic.com

Perseus braves the treacherous underworld to rescue his father, Zeus, captured by his son, Ares, and brother Hades who unleash the ancient Titans upon the world.

Director:
Jonathan Liebesman
Writers:
Dan Mazeau (screenplay), David Johnson (screenplay), and 4 more credits »
Stars:
Sam Worthington, Liam Neeson and Rosamund Pike








Source Used



INSPIRAL .........Thanks




V2 using the new source which i must say is better but because of the way it is put together it does still have flaws ...The 3D effect in some parts will put people off


Just done what i could ..........sample included..........which shows it going blurry with the 3D effect ..........your choice


Late on this one i guess so not so new a source anymore


Enjoy


image
image
image



Greets



EMBER,ETRG,BHRG,GooN,HOPE,CreWSaDe,RemixHD,LEGiTiMATE,INSPiRAL,LEGiON,XtremeEncode .......and maybe many more

Related Torrents

torrent name size files age seed leech

Sharing Widget


Download torrent
1.45 GB
seeders:3
leechers:1
Wrath Of The Titans 2012 TS NEW SOURCE XViD DTRG



To share this torrent use the code below and insert it into comments, status messages, forum posts or your signature.

Torrent: Wrath Of The Titans 2012 TS NEW SOURCE XViD DTRG

Trackers

tracker name
udp://open.demonii.com:1337/announce
udp://tracker.publicbt.com:80/announce
udp://tracker.openbittorrent.com:80/announce
udp://tracker.istole.it:80/announce
udp://tracker.ccc.de:80/announce
µTorrent compatible trackers list

Locations

name
KickassTorrents
Torrent hash: 9E801793A4CFA2D3C1912BBC8C3B2C17C62CCA39

Top Comments

7
jeras101477
audio: 4video: 4
waiting for a better quality

All Comments

audio
4/10
video
4/10
please, leave only comments related to that torrent
Sign In

audio: 3video: 2
not good copy..
audio: 8video: 7
Watchable print... But really nice movie, couldn't get this movie out of my mind for 2 days.
audio: 10video: 10
ITS CLEAR
Show More All

User Opinions

dead_113.31K, q8djent6178, funkylowlow2194, zubejda1216, adrian78501, norbilis1409, irishdiver192, swiftdna89, elchiaty3, orlndbrbis2 ... And 175 more
mekt.15.19K, RIFFY D1792, lovejonz1165, deano1811692, kwgtha252, AngelDevils246, yassut65, brethrenwolf31, lambypool13, simmi134 ... And 60 more
Report a bug