WoW Kids Movie Classics vol 3][Mp3][320kbs][Hectorbusinspector]

seeders: 0
leechers: 0
Added on Oct 6, 2009 in Music > Mp3
Torrent verified. Downloaded 0 times.

WoW Kids Movie Classics vol 3][Mp3][320kbs][Hectorbusinspector] (Size: 87.75 MB)
  wow.txt 8.83 KB
  Tracks

Description



General

Be Prepaired- The Lion King.mp3

Format : MPEG Audio

File size : 8.33 MiB

Duration : 3mn 38s

Overall bit rate : 320 Kbps



Audio

Format : MPEG Audio

Format version : Version 1

Format profile : Layer 3

Duration : 3mn 38s

Bit rate mode : Constant

Bit rate : 320 Kbps

Channel(s) : 2 channels

Sampling rate : 44.1 KHz

Resolution : 16 bits

Stream size : 8.33 MiB (100%)



General

Belle(Reprise)-Beauty & The Beast.mp3

Format : MPEG Audio

File size : 10.3 MiB

Duration : 4mn 30s

Overall bit rate : 320 Kbps



Audio

Format : MPEG Audio

Format version : Version 1

Format profile : Layer 3

Duration : 4mn 30s

Bit rate mode : Constant

Bit rate : 320 Kbps

Channel(s) : 2 channels

Sampling rate : 44.1 KHz

Resolution : 16 bits

Stream size : 10.3 MiB (100%)



General

Belle-Beauty-Mary Poppins.mp3

Format : MPEG Audio

File size : 11.4 MiB

Duration : 4mn 58s

Overall bit rate : 320 Kbps



Audio

Format : MPEG Audio

Format version : Version 1

Format profile : Layer 3

Duration : 4mn 58s

Bit rate mode : Constant

Bit rate : 320 Kbps

Channel(s) : 2 channels

Sampling rate : 44.1 KHz

Resolution : 16 bits

Stream size : 11.4 MiB (100%)



General

Chim Chimeny-Mary Poppins.mp3

Format : MPEG Audio

File size : 5.78 MiB

Duration : 2mn 31s

Overall bit rate : 320 Kbps



Audio

Format : MPEG Audio

Format version : Version 1

Format profile : Layer 3

Duration : 2mn 31s

Bit rate mode : Constant

Bit rate : 320 Kbps

Channel(s) : 2 channels

Sampling rate : 44.1 KHz

Resolution : 16 bits

Stream size : 5.78 MiB (100%)



General

Lee Poissoin-Little Mermaid.mp3

Format : MPEG Audio

File size : 8.38 MiB

Duration : 3mn 39s

Overall bit rate : 320 Kbps



Audio

Format : MPEG Audio

Format version : Version 1

Format profile : Layer 3

Duration : 3mn 39s

Bit rate mode : Constant

Bit rate : 320 Kbps

Channel(s) : 2 channels

Sampling rate : 44.1 KHz

Resolution : 16 bits

Stream size : 8.38 MiB (100%)



General

Listen With Your Heart-Pocahontas.mp3

Format : MPEG Audio

File size : 2.61 MiB

Duration : 1mn 8s

Overall bit rate : 320 Kbps



Audio

Format : MPEG Audio

Format version : Version 1

Format profile : Layer 3

Duration : 1mn 8s

Bit rate mode : Constant

Bit rate : 320 Kbps

Channel(s) : 2 channels

Sampling rate : 44.1 KHz

Resolution : 16 bits

Stream size : 2.61 MiB (100%)



General

Poor Unfortunate Fools-The Little Memaid.mp3

Format : MPEG Audio

File size : 8.77 MiB

Duration : 3mn 49s

Overall bit rate : 320 Kbps



Audio

Format : MPEG Audio

Format version : Version 1

Format profile : Layer 3

Duration : 3mn 49s

Bit rate mode : Constant

Bit rate : 320 Kbps

Channel(s) : 2 channels

Sampling rate : 44.1 KHz

Resolution : 16 bits

Stream size : 8.77 MiB (100%)



General

Riverbend-Pocahontas.mp3

Format : MPEG Audio

File size : 5.72 MiB

Duration : 2mn 29s

Overall bit rate : 320 Kbps



Audio

Format : MPEG Audio

Format version : Version 1

Format profile : Layer 3

Duration : 2mn 29s

Bit rate mode : Constant

Bit rate : 320 Kbps

Channel(s) : 2 channels

Sampling rate : 44.1 KHz

Resolution : 16 bits

Stream size : 5.72 MiB (100%)



General

Somebody-Hunchback Of Notre Dame.mp3

Format : MPEG Audio

File size : 3.72 MiB

Duration : 1mn 37s

Overall bit rate : 320 Kbps



Audio

Format : MPEG Audio

Format version : Version 1

Format profile : Layer 3

Duration : 1mn 37s

Bit rate mode : Constant

Bit rate : 320 Kbps

Channel(s) : 2 channels

Sampling rate : 44.1 KHz

Resolution : 16 bits

Stream size : 3.72 MiB (100%)



General

Something There-Beauty And The Beast.mp3

Format : MPEG Audio

File size : 4.96 MiB

Duration : 2mn 10s

Overall bit rate : 320 Kbps



Audio

Format : MPEG Audio

Format version : Version 1

Format profile : Layer 3

Duration : 2mn 10s

Bit rate mode : Constant

Bit rate : 320 Kbps

Channel(s) : 2 channels

Sampling rate : 44.1 KHz

Resolution : 16 bits

Stream size : 4.96 MiB (100%)



General

Wendy-Peter Pan.mp3

Format : MPEG Audio

File size : 5.94 MiB

Duration : 2mn 35s

Overall bit rate : 320 Kbps



Audio

Format : MPEG Audio

Format version : Version 1

Format profile : Layer 3

Duration : 2mn 35s

Bit rate mode : Constant

Bit rate : 320 Kbps

Channel(s) : 2 channels

Sampling rate : 44.1 KHz

Resolution : 16 bits

Stream size : 5.94 MiB (100%)



General

When You Wish Apon A Star-Pinnochio.mp3

Format : MPEG Audio

File size : 8.18 MiB

Duration : 3mn 34s

Overall bit rate : 320 Kbps



Audio

Format : MPEG Audio

Format version : Version 1

Format profile : Layer 3

Duration : 3mn 34s

Bit rate mode : Constant

Bit rate : 320 Kbps

Channel(s) : 2 channels

Sampling rate : 44.1 KHz

Resolution : 16 bits

Stream size : 8.18 MiB (100%)



General

Whistle While You Work-Snow White.mp3

Format : MPEG Audio

File size : 3.65 MiB

Duration : 1mn 35s

Overall bit rate : 320 Kbps



Audio

Format : MPEG Audio

Format version : Version 1

Format profile : Layer 3

Duration : 1mn 35s

Bit rate mode : Constant

Bit rate : 320 Kbps

Channel(s) : 2 channels

Sampling rate : 44.1 KHz

Resolution : 16 bits

Stream size : 3.65 MiB (100%)


Sharing Widget


Download torrent
87.75 MB
seeders:0
leechers:0
WoW Kids Movie Classics vol 3][Mp3][320kbs][Hectorbusinspector]

Trackers

tracker name Status checked seeders leechers downloads
http://genesis.1337x.org:1337/announce
outdated 13 Jul 2011 - - -
http://tracker.openbittorrent.com/announce
outdated 01 May 2010 - - -
udp://tracker.publicbt.com:80/announce
outdated 06 Oct 2009 - - -
udp://tracker.openbittorrent.com:80/announce
outdated 06 Oct 2009 - - -
http://tracker.publicbt.com/announce
deleted 20 Jul 2011 - - -
ĀµTorrent compatible trackers list

Locations

name
Mininova
1337x
SumoTorrent
Torrent hash: 2d7b7ec6c2261bde37b45e20ad444c4d477295f5

All Comments

audio
0/10
please, leave only comments related to that torrent
or sign-in

Report a bug