Who's That Girl (2011) DVDRip XviD English Softsub [sea dragon]

seeders: 0
leechers: 2
updated:
Added by akosipalos-RoN215 in Movies
Downloaded 10 times.

Summary:

When the school wallflower gets a pep talk from the most popular campus heartthrob at her lowest moment, this becomes a life-changing moment for her.

Elizabeth (Anne Curtis) transforms into a beautiful, intelligent and successful career woman, who has often fantasized about how her dream man John Eduque (Luis Manzano) had turned out to be. Until one day, she reads his name in the obituary. Elizabeth is shattered with grief over a man she was not even romantically involved with. She goes to the wake in hysterics causing eyebrows to raise, especially the deceased’s widow. The John Eduque who died is actually the senior John Eduque, John’s father. Realizing her fumble, Elizabeth hurriedly leaves, unaware of the damage she has caused to John’s family who suspects she is the unknown mistress. Mrs. Eduque succumbs to depression therefore John takes it upon himself to avenge his mother’s misery and hunts for the mystery woman. But instead of seeking revenge on Elizabeth, John starts to fall for her the more he gets to know her.

Written by FaqYuMeen10.07K
Who's That Girl (2011) DVDRip XviD English Softsub [sea dragon] (Size: 809.81 MB)
  Who's That Girl (2011) DVDRip XviD English Softsub [sea dragon].avi 805.4 MB
  Who's That Girl (2011) DVDRip XviD English Softsub [sea dragon].sub 4.33 MB
  Who's That Girl (2011) DVDRip XviD English Softsub [sea dragon].idx 78.34 KB
  Ptn.txt 351 bytes
  Ahashare text.txt 56 bytes
  PureTorrents.txt 55 bytes

Description

http://i53.tinypic.com/v8jtsh.jpg

Who's That Girl (2011) DVDRip XviD English Softsub [sea dragon]


DETAiLS:


General
Complete name : Who's That Girl(2011) DVDRip XviD English Softsub [sea dragon]
Format : AVI
Format/Info : Audio Video Interleave
File size : 805 MiB
Duration : 1h 47mn
Overall bit rate : 1 047 Kbps
Writing application : VirtualDubMod 1.5.10.3 | www.virtualdub-fr.org || (build 2550/release)
Writing library : VirtualDubMod build 2550/release
Comment : Exclusively for ITT members and is intended for screening purposes only / Support the Phil movie industry. Please buy original copies only.
Video
ID : 0
Format : MPEG-4 Visual
Format profile : Advanced Simple@L5
Format settings, BVOP : 2
Format settings, QPel : No
Format settings, GMC : No warppoints
Format settings, Matrix : Default (H.263)
Muxing mode : Packed bitstream
Codec ID : XVID
Codec ID/Hint : XviD
Duration : 1h 47mn
Bit rate : 907 Kbps
Width : 688 pixels
Height : 400 pixels
Display aspect ratio : 16:9
Frame rate : 29.970 fps
Color space : YUV
Chroma subsampling : 4:2:0
Bit depth : 8 bits
Scan type : Progressive
Compression mode : Lossy
Bits/(Pixel*Frame) : 0.110
Stream size : 698 MiB (87%)
Writing library : XviD 1.2.1 (UTC 2008-12-04)
Audio
ID : 1
Format : MPEG Audio
Format version : Version 1
Format profile : Layer 3
Mode : Joint stereo
Mode extension : MS Stereo
Codec ID : 55
Codec ID/Hint : MP3
Duration : 1h 47mn
Bit rate mode : Constant
Bit rate : 128 Kbps
Channel(s) : 2 channels
Sampling rate : 48.0 KHz
Compression mode : Lossy
Stream size : 98.5 MiB (12%)
Alignment : Split accross interleaves
Interleave, duration : 33 ms (1.00 video frame)
Interleave, preload duration : 500 ms


CAST: Anne Curtis, Luis Manzano, Eugene Domingo


PLOT:
One mistake leads to unexpected romance. Elizabeth Pedrosa (Anne Curtis) is utterly smitten with a hunk of a guy named John Edugue (Luis Manzano). But she can only love him from afar as she is an absolute wallflower. Surprisingly, John approaches her and gives her encouragement at a time she needs it most. That becomes life-changing for Elizabeth. her stunning beauty and confidence come out and she succeeds in her career. So when she reads John's name in the obituary, grief strikes her. She goes to the wake in hysterics only to find out that the deceased is John Eduque Sr., John's father. Realizing her mistake, Elizabeth leaves in a rush, oblivious to the harm she has caused. Mrs. Eduque (Eugene Domingo) concludes that her late husband has been unfaithful, making her succumb to depression. Seeing his mother's misery, John vows to look for Elizabeth and take revenge. But more conflicts arise as he falls in love with her.

SCREENS:

http://leetleech.org/images/25109894032433322214.jpg


UPLOADER's NOTE:

This MOVIE has a BiG WATERMARK on it but this copy is the best copy so far..

Related Torrents

torrent name size files age seed leech

Sharing Widget


Download torrent
809.81 MB
seeders:0
leechers:2
Who's That Girl (2011) DVDRip XviD English Softsub [sea dragon]



To share this torrent use the code below and insert it into comments, status messages, forum posts or your signature.

Torrent: Who's That Girl (2011) DVDRi...English Softsub [sea dragon]

Trackers

tracker name
udp://tracker.openbittorrent.com:80/announce
http://pow7.com/announce
http://bt.ali213.net:8080/announce
udp://tracker.publicbt.com:80/announce
udp://tracker.istole.it:80/announce
http://tracker.openbittorrent.com/announce
http://10.rarbg.com/announce
http://tracker.istole.it/announce
http://torrent-downloads.to:5869/announce
http://tracker.ccc.de/announce
http://tracker.hexagon.cc:2710/announce
http://genesis.1337x.org:1337/announce
http://tracker.torrentbay.to:6969/announce
udp://tracker.torrentbox.com:2710/announce
http://nemesis.1337x.org/announce
http://exodus.1337x.org/announce
http://nyaatorrents.info:3277/announce
http://tracker.publicbt.com/announce
udp://tracker.ccc.de:80/announce
http://tracker.bitreactor.to:2710/announce
http://tracker.torrentbox.com:2710/announce
http://p2p.lineage2.com.cn:6969/announce
µTorrent compatible trackers list

Locations

name
KickassTorrents
Torrent hash: 251c7d993d41f2c8824cd056e4c863d5116ab8d2

All Comments

audio
8/10
video
8/10
please, leave only comments related to that torrent
Sign In

Why i can't download this torrent?,pls help........
thank you po sir!...
audio: 7video: 7
decent quality
blue dragon pls seed this tnx
pls seeddd ds movie...sea dragon
seeeedddd plsss...love ds movie..
audio: 10video: 10
Nice copy... keep those filipino movies coming...
Show More All

User Opinions

JackAtKat4763, DopeHeaD3652, centurytuna1663, Ley Anne1209, djhaye400, rhedge398, fyrefox217, teoserva177, mulung45, alingjones3 ... And 20 more
chrisprice69112
Report a bug Open chat