When We Were Kings

seeders: 22
leechers: 4
Added on Jan 7, 2010 in Movies
Torrent verified. Downloaded 10 times.

When We Were Kings (Size: 1.41 GB)
  WHEN_WE_WERE_KINGS_WIDESCREEN.Title9.avi 1.34 GB
  Director comments.avi 64.02 MB
  WHEN_WE_WERE_KINGS_WIDESCREEN.Title9.sub 9.91 MB
  WHEN_WE_WERE_KINGS_WIDESCREEN.Title9.idx 102.78 KB

Description

Complete name WHEN WE WERE KINGS (WIDESCREEN) (1996)
Format : AVI
Format/Info : Audio Video Interleave
File size : 1.34 GiB
Duration : 1h 27mn
Overall bit rate : 2 192 Kbps
Movie name : WHEN_WE_WERE_KINGS_WIDESCREEN.Title9.DVDRip
Writing application : Lavf52.33.0
Original source form/Name : WHEN_WE_WERE_KINGS_WIDESCREEN

Video
ID : 0
Format : MPEG-4 Visual
Format profile : Simple@L3
Format settings, BVOP : No
Format settings, QPel : No
Format settings, GMC : No warppoints
Format settings, Matrix : Default (H.263)
Codec ID : XVID
Codec ID/Hint : XviD
Duration : 1h 27mn
Bit rate : 1 989 Kbps
Width : 624 pixels
Height : 342 pixels
Display aspect ratio : 16:9
Frame rate : 23.976 fps
Resolution : 24 bits
Colorimetry : 4:2:0
Scan type : Progressive
Bits/(Pixel*Frame) : 0.389
Stream size : 1.22 GiB (91%)
Writing library : XviD 1.2.1 (UTC 2008-12-04)

Audio
ID : 1
Format : AC-3
Format/Info : Audio Coding 3
Codec ID : 2000
Duration : 1h 27mn
Bit rate mode : Constant
Bit rate : 192 Kbps
Channel(s) : 2 channels
Channel positions : L R
Sampling rate : 48.0 KHz
Stream size : 120 MiB (9%)
Alignment : Aligned on interleaves
Interleave, duration : 32 ms (0.77 video frame)

http://www.imdb.com/title/tt0118147/

Related Torrents

torrent name size files age seed leech

Sharing Widget


Download torrent
1.41 GB
seeders:22
leechers:4
When We Were Kings

Trackers

tracker name Status checked seeders leechers downloads
udp://tracker.openbittorrent.com:80/announce
active 03 Jul 2015 22 4 10
udp://tracker.publicbt.com:80/announce
outdated 11 Jan 2015 - - -
http://tracker.openbittorrent.com/announce
outdated 16 Jul 2013 - - -
http://tracker.publicbt.com/announce
deleted 16 Jul 2013 - - -
ĀµTorrent compatible trackers list

Locations

name
ThePirateBay
Torrentzap
Torrent hash: 7c5ab4df6802b7e48253c815882e4c5bb4dce9d7

All Comments

audio
8/10
video
8/10
please, leave only comments related to that torrent
or sign-in
0
krumblipie1712 • 30 November 2014, 11:44
torrent downloaded
Show comment
audio: 8video: 7
0
Kixxo2122 • 14 August 2014, 06:53
torrent downloaded
Show comment
audio: 7video: 7
Thank you
0
petronn162 • 22 July 2014, 23:13
torrent downloaded
Show comment
audio: 6video: 8
0
ktarthepirate264 • 12 May 2014, 02:18
torrent downloaded
Show comment
Been searching for a decent copy of this for a while - thanks uploader :~)
0
madmax04588 • 04 May 2014, 19:03
torrent downloaded
Show comment
Legends, Foreman and Ali. Will be legends and this movie will be for the coming generation as well. Thanks for the upload. 10/10
0
anonymous • 24 January 2014, 14:12 Show comment
Thanks!
0
Ultraman_Taro750 • 24 March 2013, 05:26
torrent downloaded
Show comment
audio: 7video: 7
0
TheMagneto5662 • 19 November 2012, 14:54
torrent downloaded
Show comment
thanks uploader
0
u01nk519 • 18 October 2012, 23:36
torrent downloaded
Show comment
Great, Thank you!
Show More All

User Opinions

VJ19751421, abeness1048, Lassane860, fanceyfrancie324, cdcistia314, Johnnycake199, n2989154, sinister9135, primerspawn134, Grunthle51 ... And 50 more
hopz132, vato69loco59, volkanoz57, klaxon424
Report a bug