When We Were Kings

seeders: 14
leechers: 0
updated:
Added in Movies
Torrent verified. Downloaded 1,025 times.

When We Were Kings (Size: 1.41 GB)
  WHEN_WE_WERE_KINGS_WIDESCREEN.Title9.avi 1.34 GB
  Director comments.avi 64.02 MB
  WHEN_WE_WERE_KINGS_WIDESCREEN.Title9.sub 9.91 MB
  WHEN_WE_WERE_KINGS_WIDESCREEN.Title9.idx 102.78 KB

Description

Complete name WHEN WE WERE KINGS (WIDESCREEN) (1996)
Format : AVI
Format/Info : Audio Video Interleave
File size : 1.34 GiB
Duration : 1h 27mn
Overall bit rate : 2 192 Kbps
Movie name : WHEN_WE_WERE_KINGS_WIDESCREEN.Title9.DVDRip
Writing application : Lavf52.33.0
Original source form/Name : WHEN_WE_WERE_KINGS_WIDESCREEN

Video
ID : 0
Format : MPEG-4 Visual
Format profile : Simple@L3
Format settings, BVOP : No
Format settings, QPel : No
Format settings, GMC : No warppoints
Format settings, Matrix : Default (H.263)
Codec ID : XVID
Codec ID/Hint : XviD
Duration : 1h 27mn
Bit rate : 1 989 Kbps
Width : 624 pixels
Height : 342 pixels
Display aspect ratio : 16:9
Frame rate : 23.976 fps
Resolution : 24 bits
Colorimetry : 4:2:0
Scan type : Progressive
Bits/(Pixel*Frame) : 0.389
Stream size : 1.22 GiB (91%)
Writing library : XviD 1.2.1 (UTC 2008-12-04)

Audio
ID : 1
Format : AC-3
Format/Info : Audio Coding 3
Codec ID : 2000
Duration : 1h 27mn
Bit rate mode : Constant
Bit rate : 192 Kbps
Channel(s) : 2 channels
Channel positions : L R
Sampling rate : 48.0 KHz
Stream size : 120 MiB (9%)
Alignment : Aligned on interleaves
Interleave, duration : 32 ms (0.77 video frame)

http://www.imdb.com/title/tt0118147/

Related Torrents

torrent name size files age seed leech

Sharing Widget


Download torrent
1.41 GB
seeders:18
leechers:0
When We Were Kings



To share this torrent use the code below and insert it into comments, status messages, forum posts or your signature.

Torrent: When We Were Kings

Trackers

tracker name
udp://tracker.openbittorrent.com:80/announce
udp://tracker.publicbt.com:80/announce
udp://tracker.coppersurfer.tk:6969/announce
udp://glotorrents.pw:6969/announce
µTorrent compatible trackers list

Locations

name
ThePirateBay
Torrentzap
Torrent hash: 7c5ab4df6802b7e48253c815882e4c5bb4dce9d7

All Comments

audio
8/10
video
8/10
please, leave only comments related to that torrent
Sign In

audio: 10video: 10
Certainly one of the best sports documentaries of all time, even if you don't like boxing. Well worth watching. Commentary and insight featuring Howard Cosell, Norman Mailer, and George Plimpton.
audio: 8video: 9
Good movie.
audio: 7video: 7
Thank you
Been searching for a decent copy of this for a while - thanks uploader :~)
Legends, Foreman and Ali. Will be legends and this movie will be for the coming generation as well. Thanks for the upload. 10/10
Show More All

User Opinions

VJ19751421, abeness1088, Lassane861, cdcistia398, fanceyfrancie323, Johnnycake199, n2989154, sinister9135, primerspawn134, Grunthle51 ... And 61 more
hopz132, vato69loco128, volkanoz57, klaxon424
Report a bug Open chat