We Bought a Zoo 2011 CaM XviD-INFERNO

seeders: 0
leechers: 0
Added on Jan 16, 2012 in Movies
Torrent verified. Downloaded 0 times.

  • add We Bought a Zoo to bookmarks
  • Release date: 26 November 2011
  • Writers: Aline Brosh McKenna (screenplay), Cameron Crowe (screenplay), Benjamin Mee (book)
  • Language: English
Summary:
Set in Southern California, a father moves his young family to the countryside to renovate and re-open a struggling zoo.
Written by 5fingerdis61.66K
report summary
Available in versions: 1080p720pBDRipHDRiPDVDDVDRipMPEG-4
We Bought a Zoo 2011 CaM XviD-INFERNO (Size: 1.38 GB)
  Torrent downloaded from Demonoid.me.txt 46 bytes
  WBAZ.nfo 3.28 KB
  We bought a zoo 2011 CaM XviD-INFERNO.avi 1.37 GB
  sample.avi 13.25 MB

Description

We Bought a Zoo 2011 CaM XviD-INFERNO

http://www.imdb.com/title/tt1389137/
Special thanx to a friend 4 this

Here is a nice cam of we bought a zoo
it had it's issue's but still very nice for a cam just need some TLC
Video has 2 or 3 shakes throughout but more then watchable
Audio is pretty nice for a cam
Check sample and enjoy this INFERNO original
and lots more to come


Format : AVI
Format/Info : Audio Video Interleave
File size : 1.37 GiB
Duration : 1h 58mn
Overall bit rate : 1 655 Kbps
Writing library : VirtualDub build 32842/release

Video
ID : 0
Format : MPEG-4 Visual
Format profile : Advanced Simple@L5
Format settings, BVOP : 2
Format settings, QPel : No
Format settings, GMC : No warppoints
Format settings, Matrix : Default (H.263)
Muxing mode : Packed bitstream
Codec ID : XVID
Codec ID/Hint : XviD
Duration : 1h 58mn
Bit rate : 1 515 Kbps
Width : 624 pixels
Height : 352 pixels
Display aspect ratio : 16:9
Frame rate : 29.970 fps
Color space : YUV
Chroma subsampling : 4:2:0
Bit depth : 8 bits
Scan type : Progressive
Compression mode : Lossy
Bits/(Pixel*Frame) : 0.230
Stream size : 1.25 GiB (92%)
Writing library : XviD 64

Audio
ID : 1
Format : MPEG Audio
Format version : Version 1
Format profile : Layer 3
Mode : Joint stereo
Mode extension : MS Stereo
Codec ID : 55
Codec ID/Hint : MP3
Duration : 1h 58mn
Bit rate mode : Constant
Bit rate : 128 Kbps
Channel(s) : 2 channels
Sampling rate : 48.0 KHz
Compression mode : Lossy
Stream size : 108 MiB (8%)
Alignment : Split accross interleaves
Interleave, duration : 33 ms (1.00 video frame)
Interleave, preload duration : 500 ms


Poster:


http://i.imgur.com/fLEC5.jpg


Screens:


http://i.imgur.com/KPhqJ.png


http://i.imgur.com/no7px.png


http://i.imgur.com/Rlyx4.png


ENJOY!

Related Torrents

torrent name size files age seed leech

Sharing Widget


Download torrent
1.38 GB
seeders:0
leechers:0
We Bought a Zoo 2011 CaM XviD-INFERNO

Trackers

tracker name Status checked seeders leechers downloads
http://tracker.torrentbay.to:6969/announce
outdated 02 Dec 2012 - - -
http://tracker.ex.ua/announce
outdated 16 Jan 2012 - - -
udp://tracker.openbittorrent.com:80/announce
outdated 16 Jan 2012 - - -
http://tracker.openbittorrent.com/announce
outdated 16 Jan 2012 - - -
udp://tracker.publicbt.com:80/announce
outdated 16 Jan 2012 - - -
http://inferno.demonoid.me:3416/announce
outdated 16 Jan 2012 - - -
udp://tracker.1337x.org:80/announce
outdated 16 Jan 2012 - - -
http://exodus.desync.com:6969/announce
blocked 19 Aug 2012 - - -
http://tracker.publicbt.com/announce
deleted 11 Mar 2013 - - -
ĀµTorrent compatible trackers list

Locations

name
ThePirateBay
Torrent hash: d7120940b8de6074b66b0de5f9cbe73e84ffc2e3

All Comments

audio
0/10
video
0/10
please, leave only comments related to that torrent
or sign-in


User Opinions

Report a bug