WALT DISNEYS-BEAUTY AND THE BEAST[diamond edition-main movie] 20

seeders: 19
leechers: 2
updated:
Added in Movies
Torrent verified. Downloaded 2,162 times.

WALT DISNEYS-BEAUTY AND THE BEAST[diamond edition-main movie] 20 (Size: 1000.4 MB)
  b and the b.mp4 999.96 MB
  New.bmp 446.3 KB
  Torrent downloaded from Demonoid.com.txt 47 bytes

Description

MOVIE RIPPED FROM THE DIAMOND EDITION

When an arrogant prince is cursed to become a Beast, the only way to break the spell is to love and be loved in return. But who could ever learn to love a Beast? After he imprisons Belle, a bookworm who dreams of life outside her provincial village, he sees her as difficult and stubborn while she views him as a monster. But the two soon taste the bitter-sweetness of finding you can change and learning you were wrong.

Format : MPEG-4
Format profile : Base Media / Version 2
Codec ID : mp42
File size : 1 000 MiB
Duration : 1h 27mn
Overall bit rate : 1 589 Kbps
Encoded date : UTC 2010-11-22 17:42:29
Tagged date : UTC 2010-11-23 00:31:08


Video
ID : 1
Format : AVC
Format/Info : Advanced Video Codec
Format profile : Main@L4.0
Format settings, CABAC : Yes
Format settings, ReFrames : 3 frames
Codec ID : avc1
Codec ID/Info : Advanced Video Coding
Duration : 1h 27mn
Bit rate mode : Variable
Bit rate : 1 425 Kbps
Width : 720 pixels
Height : 570 pixels
Display aspect ratio : 16:9
Frame rate mode : Variable
Frame rate : 25.000 fps
Minimum frame rate : 12.500 fps
Maximum frame rate : 89.054 fps
Color space : YUV
Chroma subsampling : 4:2:0
Bit depth : 8 bits
Scan type : Progressive
Bits/(Pixel*Frame) : 0.139
Stream size : 897 MiB (90%)
Writing library : x264 core 65

Language : English
Encoded date : UTC 2010-11-22 17:42:29
Tagged date : UTC 2010-11-23 00:31:08
Color primaries : BT.601-6 525, BT.1358 525, BT.1700 NTSC, SMPTE 170M
Transfer characteristics : BT.709-5, BT.1361
Matrix coefficients : BT.601-6 525, BT.1358 525, BT.1700 NTSC, SMPTE 170M

Audio
ID : 2
Format : AAC
Format/Info : Advanced Audio Codec
Format version : Version 4
Format profile : LC
Codec ID : 40
Duration : 1h 27mn
Bit rate mode : Variable
Bit rate : 160 Kbps
Maximum bit rate : 254 Kbps
Channel(s) : 2 channels
Channel positions : Front: L R
Sampling rate : 48.0 KHz
Stream size : 101 MiB (10%)
Language : English
Encoded date : UTC 2010-11-22 17:42:29
Tagged date : UTC 2010-11-23 00:31:03

Sharing Widget


Download torrent
1000.4 MB
seeders:22
leechers:1
WALT DISNEYS-BEAUTY AND THE BEAST[diamond edition-main movie] 20



To share this torrent use the code below and insert it into comments, status messages, forum posts or your signature.

Torrent: WALT DISNEYS-BEAUTY AND THE ...amond edition-main movie] 20

Trackers

tracker name
udp://tracker.openbittorrent.com:80/announce
udp://tracker.publicbt.com:80/announce
udp://tracker.istole.it:80/announce
http://nemesis.1337x.org/announce
http://genesis.1337x.org:1337/announce
http://exodus.1337x.org/announce
udp://fr33domtracker.h33t.com:3310/announce
udp://tracker.ccc.de:80/announce
udp://inferno.demonoid.com:3409/announce
ĀµTorrent compatible trackers list

Locations

name
ThePirateBay
Limetorrents
1337x
Limetorrents
Torrent hash: 524e5ba2095dec6abdd62987539d7d98266976fa

Top Comments

3
anonymous
audio: 8video: 8
Decent quality. No problems playing, but if viewing on a larger screen, picture is a little jagged. To be expected based on small size of file, but just letting users know it isn't going to look hi-def

All Comments

audio
9/10
video
9/10
please, leave only comments related to that torrent
Sign In

audio: 10video: 10
great quality for how old the movie is
audio: 10video: 10
awesome best quality i love that movie
is it hindi edition or english?
audio: 9video: 9
Good quality. Quick download. Thanks [:Qbiggrin
Show More All

User Opinions

a_jay2033, jonh952, undead646321, razormc260, Muddinstarr2009117, ZheXia101, Johnfb92, Dave101450, sexyredde42, jlbes12 ... And 349 more
Trueblood1975800, ShefSvemira705, tawi99672, arcadiabud337, mater851141, Willemja_n138, sticky11137, rcchaps91, jmwexpress47, Cynthi2 ... And 3 more
Report a bug Open chat