Advertising (remove)

Very Sexy Muslim Girl Fucking with Burkha @ mastitorrents

seeders: 0
leechers: 0
updated:
Added in XXX > Video
Downloaded 22 times.

Very Sexy Muslim Girl Fucking with Burkha @ mastitorrents (Size: 80.31 MB)
  Very Sexy Muslim Girl Fucking with Burkha on her Face.jpg 211.72 KB
  Very Sexy Muslim Girl Fucking with Burkha on her Face.mp4 79.86 MB
  Very Sexy Muslim Girl Fucking with Burkha on her Face.mp4_snapshot_06.55_[2009.12.11_07.44.06].jpg 21.62 KB
  Very Sexy Muslim Girl Fucking with Burkha on her Face.torrent 13.08 KB
  vlcsnap-324001.png 76.07 KB
  vlcsnap-324310.png 141.96 KB
Advertising (remove)

Description

Very Sexy Muslim Girl Fucking with Burkha @ mastitorrents



General
Complete name : Very Sexy Muslim Girl Fucking with Burkha on her Face.mp4
Format : MPEG-4
Format profile : Base Media
Codec ID : isom
File size : 79.9 MiB
Duration : 10mn 11s
Overall bit rate : 1 095 Kbps
Encoded date : UTC 2009-12-08 22:59:22
Tagged date : UTC 2009-12-08 22:59:22

Video
ID : 1
Format : MPEG-4 Visual
Format profile : Simple@L1
Format settings, BVOP : No
Format settings, QPel : No
Format settings, GMC : No warppoints
Format settings, Matrix : Default (H.263)
Codec ID : 20
Duration : 10mn 11s
Bit rate mode : Variable
Bit rate : 1 002 Kbps
Width : 480 pixels
Height : 320 pixels
Display aspect ratio : 1.500
Frame rate mode : Constant
Frame rate : 25.000 fps
Resolution : 24 bits
Colorimetry : 4:2:0
Scan type : Progressive
Bits/(Pixel*Frame) : 0.261
Stream size : 73.1 MiB (92%)
Writing library : Lavc51.40.4
Encoded date : UTC 2009-12-08 22:59:22
Tagged date : UTC 2009-12-08 22:59:22

Audio
ID : 2
Format : AAC
Format/Info : Advanced Audio Codec
Format version : Version 4
Format profile : LC
Format settings, SBR : No
Codec ID : 40
Duration : 10mn 11s
Bit rate mode : Variable
Bit rate : 88.2 Kbps
Channel(s) : 2 channels
Channel positions : L R
Sampling rate : 44.1 KHz
Resolution : 16 bits
Stream size : 6.44 MiB (8%)
Encoded date : UTC 2009-12-08 22:59:22
Tagged date : UTC 2009-12-08 22:59:22

Sharing Widget


Download torrent
80.31 MB
seeders:0
leechers:0
Very Sexy Muslim Girl Fucking with Burkha @ mastitorrents



To share this torrent use the code below and insert it into comments, status messages, forum posts or your signature.

Torrent: Very Sexy Muslim Girl Fucking with Burkha @ mastitorrents

Trackers

tracker name
udp://tracker.openbittorrent.com:80/announce
udp://tracker.publicbt.com:80/announce
http://tracker.openbittorrent.com/announce
http://tracker.publicbt.com/announce
ĀµTorrent compatible trackers list

Locations

name
ThePirateBay
SumoTorrent
Torrent hash: b89d46227e06770667cb3680ea06436bc236c5ba

All Comments

audio
8/10
video
9/10
please, leave only comments related to that torrent
Sign In

audio: 8video: 9
HoNeSt ReViEwS: Good movie Watchable V9 / A8

User Opinions

Report a bug Open chat