Unofficially Yours [2012] DVDRip H264 elite-pirates

seeders: 4
leechers: 1
updated:
Added in Movies
Torrent verified. Downloaded 227 times.

Summary:

The film deals about a man who falls in love with someone who doesn’t want to fall in love. Macky Galvez, a depressed young man who’s been contemplating on why he had several failed relationships. On the other hand, Ces Bricenio, is a modern-day woman who is afraid of commitments. When their worlds collide, a funny yet sexy love story develops.

Written by Fereroooo64.37K
Available in versions: DVDRip
Unofficially Yours [2012] DVDRip H264 elite-pirates (Size: 444.93 MB)
  Unofficially Yours [2012] DVDRip H264 elite-pirates.com.avi 444.93 MB
  Torrent downloaded from AhaShare.com.txt 59 bytes
  Torrent downloaded from elite-pirates.com.txt 52 bytes
  Torrent downloaded from Demonoid.me.txt 46 bytes

Description

IMDb : http://www.imdb.com/title/tt2211191/
Source : bryantfury... Thanks!!!
Encoder : dcloser
Audio Language : Tagalog/Filipino
Subtitles : No


General
Complete name : Unofficially Yours [2012] DVDRip H264 elite-pirates.com.avi
Format : AVI
Format/Info : Audio Video Interleave
File size : 445 MiB
Duration : 1h 46mn
Overall bit rate : 582 Kbps
Writing library : VirtualDub build 32842/release

Video
ID : 0
Format : AVC
Format/Info : Advanced Video Codec
Format profile : High@L3.0
Format settings, CABAC : Yes
Format settings, ReFrames : 3 frames
Codec ID : H264
Duration : 1h 46mn
Bit rate : 442 Kbps
Width : 624 pixels
Height : 336 pixels
Display aspect ratio : 1.857
Frame rate : 29.970 fps
Color space : YUV
Chroma subsampling : 4:2:0
Bit depth : 8 bits
Scan type : Progressive
Bits/(Pixel*Frame) : 0.070
Stream size : 338 MiB (76%)
Writing library : x264 core 120 r2120bm 0c7dab9
Encoding settings : cabac=1 / ref=3 / deblock=1:0:0 / analyse=0x3:0x113 / me=hex

Audio
ID : 1
Format : MPEG Audio
Format version : Version 1
Format profile : Layer 3
Mode : Joint stereo
Mode extension : MS Stereo
Codec ID : 55
Codec ID/Hint : MP3
Duration : 1h 46mn
Bit rate mode : Constant
Bit rate : 128 Kbps
Channel(s) : 2 channels
Sampling rate : 48.0 KHz
Compression mode : Lossy
Stream size : 97.9 MiB (22%)
Alignment : Aligned on interleaves
Interleave, duration : 33 ms (1.00 video frame)
Interleave, preload duration : 504 ms
Writing library : LAME3.97
Encoding settings : -m j -V 4 -q 2 -lowpass 17 -b 128

Sharing Widget


Download torrent
444.93 MB
seeders:4
leechers:1
Unofficially Yours [2012] DVDRip H264 elite-pirates



To share this torrent use the code below and insert it into comments, status messages, forum posts or your signature.

Torrent: Unofficially Yours [2012] DVDRip H264 elite-pirates

Trackers

tracker name
udp://tracker.openbittorrent.com:80/announce
udp://tracker.publicbt.com:80/announce
udp://tracker.istole.it:80/announce
udp://open.demonii.com:1337/announce
µTorrent compatible trackers list

Locations

name
ThePirateBay
Torrent hash: FF7486327708B489D2D6F58DC6285044727DE7EF

All Comments

audio
6/10
video
6/10
please, leave only comments related to that torrent
Sign In

audio: 8video: 8
Good quality. Thanks!
thanks ...not like other uploader fake file.....thank you again...(-^_^_)
audio: 7video: 6
fast download. and it's watchable... that's all i could say. thanks anyway:))
audio: 2video: 2
DVDRip of a pirated copy. No, thanks. I wasted my time downloading this.

someone seed please
audio: 1video: 1
stupid marking on the bottom of the video. it ruins the entire film. don't download
Show More All

User Opinions

Sumihira14259, YodDha1045, ota31996, 702lakay21695, Prince_Barry687, valerie91370, j-snow311, lulut4301, sxcbodi268, Shadegate114 ... And 66 more
J_Allerdyce1339, Andygeo06420, fungpolanco177, woody40007173, daryldave91, kaplogan16
Report a bug Open chat