Universal Soldier(4)-Regeneration[2009]DvDrip MXMG

seeders: 0
leechers: 0
updated:
Added in Movies
Downloaded 10 times.

Summary:

When terrorists threaten nuclear catastrophe, the world's only hope is to reactivate decommissioned Universal Soldier Luc Deveraux. Rearmed and reprogrammed, Deveraux must take on his nemesis from the original Universal Soldier and a next-generation "UniSol".

Written by 5fingerdis64.81K
Available in versions: 1080pHDRiPDVDRip
Universal Soldier(4)-Regeneration[2009]DvDrip MXMG (Size: 700.03 MB)
  Universal Soldier(4)-Regernation[2009]DvDrip MXMG.avi 699.98 MB
  Universal Soldier(4)-Regernation[2009]DvDrip MXMG.srt 44.79 KB
  Universal Soldier(4)-Regernation[2009]DvDrip MXMG.nfo 4.44 KB
  Torrent downloaded from AhaShare.com.txt 59 bytes
  Torrent downloaded from Demonoid.com.txt 47 bytes
  tracked_by_h33t.com.txt 23 bytes
  Tracked_by_Localhost.ws.txt 23 bytes

Description

*******************************************************************************
Universal Soldier(4)-Regeneration[2009]DvDrip MXMG
*******************************************************************************

-------------------------------------------------------------------------------
General Information
-------------------------------------------------------------------------------


Audio Format.........: MP3
Ripper...............: MXMG Super
Encoder..............: LAME

Video Format.........: AVI
Video Bitrate........: 872
Resolution...........: 688 x 288
Color................: 8 bit
FPS..................: 23.976
Source...............: BluRay
Genre................: Action | Drama | Sci-Fi | Thriller
IMDb Rating..........: 5.9
Movie Information....: http://www.imdb.com/title/tt1288403/

-------------------------------------------------------------------------------
Post Information
-------------------------------------------------------------------------------
Posted by............: MXMG (mailMXMG@gmail.com)
Posted on............: 3/30/2010

-------------------------------------------------------------------------------
Release Notes
-------------------------------------------------------------------------------
-------------------------------------------------------------------------------
Plot
-------------------------------------------------------------------------------
With stolen top-secret technology, terrorists have created a next-generation
Universal Soldier - an elite fighter genetically altered into a programmable
killing machine. With this "UniSol" (Former UFC Heavyweight Champion Andrei "The
Pit Bull" Arlovski) leading the way, they seize the crippled Chernobyl nuclear
reactor, threatening to unleash a lethal radioactive cloud. The only one who can
stop them is Luc Deveraux (Jean-Claude Van Damme), a UniSol who's been
decommissioned for years. Reactivated and retrained, Deveraux must make a full-
out assault on the heavily armed fortress. But inside, he'll discover not one
but two of these virtually indestructible warriors. Andrew Scott (Dolph
Lundgren), Deveraux's vicious UniSol enemy from the original Universal Soldier,
has been secretly reanimated and upgraded. Now, these elite fighters are locked,
loaded and programmed to kill; and the fate of millions hinges on this high-
action showdown.



General
Complete name : Universal Soldier(4)-Regernation[2009]DvDrip
MXMG
Format : AVI
Format/Info : Audio Video Interleave
File size : 700 MiB
Duration : 1h 36mn
Overall bit rate : 1 009 Kbps
Writing application : VirtualDubMod 1.5.10.2 (build 2542/release)
Writing library : VirtualDubMod build 2542/release

Video
Format : MPEG-4 Visual
Format profile : Advanced Simple@L5
Format settings, Matrix : Default (H.263)
Muxing mode : Packed bitstream
Codec ID : XVID
Codec ID/Hint : XviD
Duration : 1h 36mn
Bit rate : 872 Kbps
Width : 688 pixels
Height : 288 pixels
Display aspect ratio : 2.35:1
Frame rate : 23.976 fps
Resolution : 8 bits
Colorimetry : 4:2:0
Scan type : Progressive
Bits/(Pixel*Frame) : 0.184
Stream size : 605 MiB (86%)
Writing library : XviD 1.2.1 (UTC 2008-12-04)

Audio
Format : MPEG Audio
Format profile : Layer 3
Codec ID : 55
Codec ID/Hint : MP3
Duration : 1h 36mn
Bit rate mode : Constant
Bit rate : 128 Kbps
Channel(s) : 2 channels
Sampling rate : 48.0 KHz
Stream size : 88.8 MiB (13%)
Alignment : Aligned on interleaves
Interleave, duration : 42 ms (1.00 video frame)
Interleave, preload duration : 504 ms
Writing library : LAME3.97



Screens:

http://img547.imageshack.us/.../universalsoldier4regern.jpg

Related Torrents

torrent name size files age seed leech

Sharing Widget


Download torrent
700.03 MB
seeders:0
leechers:0
Universal Soldier(4)-Regeneration[2009]DvDrip MXMG



To share this torrent use the code below and insert it into comments, status messages, forum posts or your signature.

Torrent: Universal Soldier(4)-Regeneration[2009]DvDrip MXMG

Trackers

tracker name
http://tracker.openbittorrent.com/announce
udp://tracker.publicbt.com:80/announce
udp://tracker.openbittorrent.com:80/announce
http://tracker.publicbt.com/announce
µTorrent compatible trackers list

Locations

name
ThePirateBay
KickassTorrents
ExtraTorrent
SumoTorrent
Torrent hash: 17f51dfa159269e77b068a5bd453ca791b7c6ca1

All Comments

audio
9/10
video
9/10
please, leave only comments related to that torrent
Sign In

i seeded but it dont show it, why?
audio: 9video: 9
Thanks
but no seeds or leechers
audio: 10video: 10
It was awesome
audio: 9video: 9

User Opinions

NanDa91765, Nemke91SRB1409, unclecoffee386, nestly265, bindy1201
neezu45
Report a bug