Two Moon Junction (1988).avi

seeders: 0
leechers: 0
updated:
Added in Movies
Torrent verified. Downloaded 24 times.

Summary:

A young Southern débutante temporarily abandons her posh lifestyle and upcoming, semi-arranged marriage to have a lustful and erotic fling with a rugged drifter who works at a local carnival.

Written by phoenix66118.91K
Available in versions: 1080p720pHDRiP
Two Moon Junction (1988).avi (Size: 1.55 GB)
  Two Moon Junction (1988).avi 1.55 GB

Description

Two Moon Junction (1988) DVD rip


http://www.imdb.com/title/tt0096324/



General
Complete name : Two Moon Junction (1988).avi
Format : AVI
Format/Info : Audio Video Interleave
File size : 1.55 GiB
Duration : 1h 40mn
Overall bit rate : 2 199 Kbps
Movie name : two moon junction.Title2.DVDRip
Writing application : Lavf52.33.0
Original source form/Name : two moon junction dvd

Video
ID : 0
Format : MPEG-4 Visual
Format profile : AdvancedSimple@L5
Format settings, BVOP : Yes
Format settings, QPel : No
Format settings, GMC : No warppoints
Format settings, Matrix : Default (H.263)
Muxing mode : Packed bitstream
Codec ID : XVID
Codec ID/Hint : XviD
Duration : 1h 40mn
Bit rate : 2 001 Kbps
Width : 720 pixels
Height : 388 pixels
Display aspect ratio : 1.856
Frame rate : 25.000 fps
Resolution : 24 bits
Colorimetry : 4:2:0
Scan type : Progressive
Bits/(Pixel*Frame) : 0.287
Stream size : 1.40 GiB (91%)
Writing library : XviD 1.2.1 (UTC 2008-12-04)

Audio
ID : 1
Format : AC-3
Format/Info : Audio Coding 3
Codec ID : 2000
Duration : 1h 40mn
Bit rate mode : Constant
Bit rate : 192 Kbps
Channel(s) : 2 channels
Channel positions : L R
Sampling rate : 48.0 KHz
Stream size : 138 MiB (9%)
Alignment : Aligned on interleaves
Interleave, duration : 32 ms (0.80 video frame)
Interleave, preload duration

Related Torrents

torrent name size files age seed leech

Sharing Widget


Download torrent
1.55 GB
seeders:0
leechers:0
Two Moon Junction (1988).avi



To share this torrent use the code below and insert it into comments, status messages, forum posts or your signature.

Torrent: Two Moon Junction (1988).avi

Trackers

tracker name
udp://tracker.publicbt.com:80/announce
udp://tracker.istole.it:80/announce
udp://tracker.openbittorrent.com:80/announce
udp://open.demonii.com:1337/announce
udp://fr33domtracker.h33t.com:3310/announce
udp://tracker.publicbt.com:6969/announce
udp://tracker.istole.it:6969/announce
µTorrent compatible trackers list

Locations

name
ThePirateBay
Limetorrents
Torrent hash: 35e563ba27da1929b9935ef95b0653967dcc2e08

All Comments

audio
8/10
video
8/10
please, leave only comments related to that torrent
Sign In

did not DL, thanks anyways
audio: 9video: 9
NICE & FINE !
audio: 8video: 7
Tks...uploader and seeds....excellent movie
audio: 9video: 9
Thanks! Great Stuff!
audio: 9video: 8
hot erotic movie , kinda reminds me of 9 1/2 weeks without all the pub , still a great flick
Show More All

User Opinions

TheMagneto5736, DeepK3555, kinty22496, arman_arian1643, TanjilOvi1051, GildroY667, dsrtmntgirl512, c30hinmay181, lafferlaffer152, rkatiyar149 ... And 52 more
paragpan1493, Lina6240550, KING_KHAN_1225, auj_007107
Report a bug