TT Closer To The Edge 2011 DVDRiP AC3 5.1 XViD -U.S.M

seeders: 2
leechers: 2
updated:
Added by legend65.96K in Movies > Documentary
Torrent verified. Downloaded 40 times.

Summary:

By vividly recounting the TT's legendary rivalries and the Isle of Man's unique road racing history, this 3D feature documentary will discover why modern TT riders still risk their lives to win the world's most dangerous race. The Isle of Man Tourist Trophy is the greatest motorcycle road race in the world, the ultimate challenge for rider and machine. It has always called for a commitment far beyond any other racing event, and many have made the ultimate sacrifice in their quest for victory. A story about freedom of choice, the strength of human spirit and the will to win. It's also an examination of what motivates those rare few, this elite band of brothers who risk everything to win. The vision of top commercials director Richard de Aragues, this promises to be one of the most thrilling films of 2011.

Written by Mughal12520.16K
Available in versions: 1080p720pHDRiPDVDRipx265
TT Closer To The Edge 2011 DVDRiP AC3 5.1 XViD -U.S.M (Size: 1.37 GB)
  TT Closer To The Edge 2011 DVDRiP AC3 5.1 XViD - U.S.M.avi 1.37 GB
  TT Closer To The Edge 2011 DVDRiP AC3 5.1 XViD - U.S.M.nfo 3.94 KB
  Torrent downloaded from extratorrent.com.txt 353 bytes

Description


image


UUUUUUUU UUUUUUUU SSSSSSSSSSSSSSS MMMMMMMM MMMMMMMM 
U::::::U U::::::U SS:::::::::::::::S M:::::::M M:::::::M 
U::::::U U::::::U S:::::SSSSSS::::::S M::::::::M M::::::::M 
UU:::::U U:::::UU S:::::S SSSSSSS M:::::::::M M:::::::::M 
U:::::U U:::::U S:::::S M::::::::::M M::::::::::M 
U:::: D:::::U S:::::S M:::::::::::M M:::::::::::M 
U:::: D:::::U S::::SSSS M:::::::M::::M M::::M:::::::M 
U:::: D:::::U SS::::::SSSSS M::::::M M::::M M::::M M::::::M 
U:::: D:::::U SSS::::::::SS M::::::M M::::M::::M M::::::M 
U:::: D:::::U SSSSSS::::S M::::::M M:::::::M M::::::M 
U:::: D:::::U S:::::S M::::::M M:::::M M::::::M 
U::::::U U::::::U S:::::S M::::::M MMMMM M::::::M 
U:::::::UUU:::::::U SSSSSSS S:::::S M::::::M M::::::M 
 UU:::::::::::::UU ...... S::::::SSSSSS:::::S ...... M::::::M M::::::M 
 UU:::::::::UU .::::. S:::::::::::::::SS .::::. M::::::M M::::::M 
 UUUUUUUUU ...... SSSSSSSSSSSSSSS ...... MMMMMMMM MMMMMMMM 



TT Closer To The Edge 2011 DVDRiP AC3 5.1 XViD - U.S.M


SOURCES:

TT CLOSER TO THE EDGE 2011 PAL DVDR Legend-Rg

IMDB:

www.imdb.com/title/tt1698010/

Video
ID : 0
Format : MPEG-4 Visual
Format profile : Advanced Simple@L5
Format settings, BVOP : 2
Format settings, QPel : No
Format settings, GMC : No warppoints
Format settings, Matrix : Default (MPEG)
Muxing mode : Packed bitstream
Codec ID : XVID
Codec ID/Hint : XviD
Duration : 1h 39mn
Bit rate : 1 522 Kbps
Width : 720 pixels
Height : 384 pixels
Display aspect ratio : 1.875
Frame rate : 25.000 fps
Color space : YUV
Chroma subsampling : 4:2:0
Bit depth : 8 bits
Scan type : Progressive
Compression mode : Lossy
Bits/(Pixel*Frame) : 0.220
Stream size : 1.06 GiB (77%)
Writing library : XviD 64

Audio
ID : 1
Format : AC-3
Format/Info : Audio Coding 3
Mode extension : CM (complete main)
Codec ID : 2000
Duration : 1h 39mn
Bit rate mode : Constant
Bit rate : 448 Kbps
Channel(s) : 6 channels
Channel positions : Front: L C R, Side: L R, LFE
Sampling rate : 48.0 KHz
Bit depth : 16 bits
Compression mode : Lossy
Stream size : 318 MiB (23%)
Alignment : Aligned on interleaves
Interleave, duration : 40 ms (1.00 video frame)
Interleave, preload duration : 512 ms



WORKDONE:

Straight forward rip really ....made a d2v file off the dvd,then made a script that contained crop,resize,sharpen only.
Audio stripped from dvd then remuxed to the encode.
Check sample for Q.

SCREENIES:

image
image
image
image
image

Related Torrents

torrent name size files age seed leech

Sharing Widget


Download torrent
1.37 GB
seeders:2
leechers:2
TT Closer To The Edge 2011 DVDRiP AC3 5.1 XViD -U.S.M



To share this torrent use the code below and insert it into comments, status messages, forum posts or your signature.

Torrent: TT Closer To The Edge 2011 DVDRiP AC3 5.1 XViD -U.S.M

Trackers

tracker name
http://tracker.pow7.com/announce
udp://tracker.publicbt.com:80/announce
udp://tracker.openbittorrent.com:80/announce
udp://tracker.1337x.org:80/announce
http://ipv4.tracker.harry.lu/announce
http://10.rarbg.com/announce
http://tracker.openbittorrent.com/announce
http://tracker.ex.ua/announce
http://tracker.torrentbay.to:6969/announce
http://exodus.desync.com:6969/announce
http://tracker.publicbt.com/announce
http://fr33dom.h33t.com:3310/announce
┬ÁTorrent compatible trackers list

Locations

name
KickassTorrents
ThePirateBay
ExtraTorrent
Torrent hash: E3E16B023D803E3F77832512E1DAF8E888F43CDA

All Comments

audio
9/10
video
9/10
please, leave only comments related to that torrent
Sign In

audio: 9video: 9
Oh my guts!
Thank's for sharing mate!
Love the documentary┬║
Rock on mates!
audio: 9video: 9
This will have to do since no other blue ray
torrents that are not 3d
so for a dvd rip its pretty darn good
About the movie this guy has balls of steel to ride his bike this fast
and on the course of the courses they race.
A well put together documentary one the best I have seen in years if
you are a bike rider or fan you will defiantly love this! Great job legend
audio: 9video: 10
Beautiful rip. Plays perfectly well on PS3, and great video/audio.
awesome rip!!!!!!!!!!!!!!!!!!!
audio: 10video: 10
The Guy is a nutter what a quality film
They are speaking "English" but the main character's (Guy Martin) accent is so intense I can barely understand him bein from the US. Beautifully shot movie, would have loved to have seen it in 3D
What language are these guys speaking and how do I get the subtitles?
haha english mate , were you from mate .

Show More All

User Opinions

barchetta9173, Fireman58444525, Aldari0n4216, zara_babu1946, CripesDM1460, shwartzi1401, boubla383, rooster78282, emz1101, Jacober200916 ... And 99 more
cdrlos52
Report a bug