Tinkerbell- Secret Of The Wings 3D (2012) 1080p H-SBS[3dTV] .mp4

seeders: 1
leechers: 0
Added on Oct 14, 2012 by Audiophile83621 in Movies > 3D Movies
Downloaded 10 times.

Tinkerbell- Secret Of The Wings 3D (2012) 1080p H-SBS[3dTV] .mp4 (Size: 2.59 GB)
  Tinkerbell- Secret Of The Wings 3D (2012) 1080p H-SBS [3DTV][Sick-Flix].mp4 2.59 GB

Description

SICK-FLIX is the 1st website to bring you this highly anticipated Real 3D Title Made for 3D Devices with Auto-3D Enabling
GOOGLE US, You'll be glad you DID !
WE OFFER A 10X HIGHER QUALITY ENCODING THAN YIFY AND ONLY 50% BIGGER IN SIZE !!
NO JOKE !
This is Tinkerbell- Secret Of The Wings 3D (2012) QHD Half-SBS for 3DTV - EVO 3D
Made specifically for 3DTV's and handheld 3D Devices alike with Auto-3D Enabled
(no more putting your device into 3D mode,
it will read this file like a disc and do it for you)
Encoded by the group ---SICK-FLIX ----
Bringing 3DTV Owners & HTC EVO 3D users more content than amazon since June 2011
Over 500 Real 3D Titles from all over the Globe
Complete name : Tinkerbell- Secret Of The Wings 3D (2012) 1080p Half-SBS for 3DTV - EVO 3D.mp4
Format : MPEG-4
Format profile : Base Media / Version 2
Codec ID : mp42
File size : 2.59 GiB
Duration : 1h 15mn
Overall bit rate mode : Variable
Overall bit rate : 4 940 Kbps
Encoded date : UTC 2012-10-14 02:36:28
Tagged date : UTC 2012-10-14 03:14:23
Video
ID : 1
Format : AVC
Format/Info : Advanced Video Codec
Format profile : High@L3.1
Format settings, CABAC : Yes
Format settings, ReFrames : 6 frames
Codec ID : avc1
Codec ID/Info : Advanced Video Coding
Duration : 1h 15mn
Bit rate mode : Variable
Bit rate : 4 635 Kbps
Display aspect ratio : 16:9
Frame rate mode : Variable
Frame rate : 23.959 fps
Minimum frame rate : 11.987 fps
Maximum frame rate : 23.981 fps
Color space : YUV
Chroma subsampling : 4:2:0
Bit depth : 8 bits
Scan type : Progressive
Bits/(Pixel*Frame) : 0.373
Stream size : 2.43 GiB (94%)
Writing library : x264 core 122
Encoding settings : cabac=1 / ref=6 / deblock=1:0:0 / analyse=0x3:0x113 / me=umh / subme=7 / psy=1 / psy_rd=1.00:0.00 / mixed_ref=0 / me_range=42 / chroma_me=1 / trellis=1 / 8x8dct=1 / cqm=0 / deadzone=21,11 / fast_pskip=1 / chroma_qp_offset=-2 / threads=6 / sliced_threads=0 / nr=0 / decimate=1 / interlaced=0 / bluray_compat=0 / constrained_intra=0 / bframes=6 / b_pyramid=2 / b_adapt=2 / b_bias=0 / direct=3 / weightb=0 / open_gop=0 / weightp=2 / keyint=240 / keyint_min=24 / scenecut=40 / intra_refresh=0 / rc_lookahead=40 / rc=crf / mbtree=1 / crf=13.8 / qcomp=0.60 / qpmin=3 / qpmax=69 / qpstep=4 / frame-packing=3 / ip_ratio=1.40 / aq=1:1.00
Encoded date : UTC 2012-10-14 02:36:28
Tagged date : UTC 2012-10-14 03:14:23
Color primaries : BT.709-5, BT.1361, IEC 61966-2-4, SMPTE RP177
Transfer characteristics : BT.709-5, BT.1361
Matrix coefficients : BT.709-5, BT.1361, IEC 61966-2-4 709, SMPTE RP177
Audio
ID : 2
Format : AAC
Format/Info : Advanced Audio Codec
Format profile : LC
Codec ID : 40
Duration : 1h 15mn
Bit rate mode : Variable
Bit rate : 320 Kbps
Maximum bit rate : 420 Kbps
Channel(s) : 2 channels
Channel positions : Front: L R
Sampling rate : 48.0 KHz
Compression mode : Lossy
Stream size : 161 MiB (6%)
Encoded date : UTC 2012-10-14 02:36:28
Tagged date : UTC 2012-10-14 03:14:22
Seedbox Supported, for any questions please just google SICK-FLIX !!

Related Torrents

torrent name size files age seed leech

Sharing Widget


Download torrent
2.59 GB
seeders:1
leechers:0
Tinkerbell- Secret Of The Wings 3D (2012) 1080p H-SBS[3dTV] .mp4

Trackers

tracker name Status checked seeders leechers downloads
udp://tracker.openbittorrent.com:80/announce
outdated 27 Jun 2015 - - -
udp://tracker.publicbt.com:80/announce
outdated 22 Feb 2014 - - -
udp://tracker.istole.it:80/announce
outdated 22 Feb 2014 - - -
http://tracker.ccc.de/announce
outdated 16 Oct 2012 - - -
udp://tracker.1337x.org:80/announce
outdated 14 Oct 2012 - - -
http://tracker.istole.it/announce
outdated 14 Oct 2012 - - -
http://exodus.desync.com:6969/announce
blocked 14 Oct 2012 - - -
http://tracker.publicbt.com/announce
deleted 14 Oct 2012 - - -
udp://tracker.ccc.de:80/announce
deleted 14 Oct 2012 - - -
udp://fr33domtracker.h33t.com:3310/announce
deleted 14 Oct 2012 - - -
µTorrent compatible trackers list

Locations

name
KickassTorrents
Torrent hash: 75339C50D02E91B533DF88A79B8FE951EAC71E07

All Comments

audio
10/10
video
9/10
please, leave only comments related to that torrent
or sign-in
0
suziporteglio228 • 22 February 2014, 12:32
torrent downloaded
Show comment
I believe this is not 1080p

The resolution is 960x540.
0
heggy198323 • 19 January 2013, 19:56
torrent downloaded
Show comment
audio: 10video: 9
amazing quality although in split screen but has audio unlike all the rest i tried
0
raking5021 • 17 October 2012, 03:25
torrent downloaded
Show comment
audio: 10video: 7
it recorded in split screen, definitely has audio
0
ScallyScouser72.68K • 16 October 2012, 13:48
torrent downloaded
Show comment
audio: 10video: 10
Superb The Kids will love it, Good copy and 3D, TY for the up mate
0
AlenTheGreat7528 • 15 October 2012, 19:11
torrent downloaded
Show comment
audio: 10video: 10
Great quality and great animation

User Opinions

Report a bug