This Means War 2012 Cam XviD Feel-Free

seeders: 0
leechers: 0
updated:
Added by feel-free20.34K in Movies
Torrent verified. Downloaded 0 times.

  • add This Means War to bookmarks
  • Release date: 17 February 2012
  • Writers: Timothy Dowling (screenplay), Simon Kinberg (screenplay), Timothy Dowling (story), Marcus Gautesen (story)
  • Director: McG
  • Language: English
Summary:

Two top CIA operatives wage an epic battle against one another after they discover they are dating the same woman.

Written by 5fingerdis65.72K
This Means War 2012 Cam XviD Feel-Free (Size: 924.36 MB)
  5ca2a82d67.jpg 17.84 KB
  This Means War 2012 Cam XviD Feel-Free.avi 923.42 MB
  This Means War 2012 Cam XviD Feel-Free.nfo 3.22 KB
  Torrent downloaded from extratorrent.com.txt 171 bytes
  vlcsnap-2012-02-19-19h27m06s1.png 208.38 KB
  vlcsnap-2012-02-19-19h27m33s9.png 255.08 KB
  vlcsnap-2012-02-19-19h27m44s118.png 302.16 KB
  vlcsnap-2012-02-19-19h27m50s194.png 174.01 KB

Description

http://i2.lulzimg.com/5ca2a82d67.jpg


Genre:Action | Comedy | Romance
Language:English
IMDb:http://www.imdb.com/title/tt1596350/
Source:RUS.Xvid.CAMrip-GANG/INSPiRAL Thanks!
Encoder:Tony

Format : AVI
Format/Info : Audio Video Interleave
File size : 923 MiB
Duration : 1h 31mn
Overall bit rate : 1 411 Kbps

Video
ID : 0
Format : MPEG-4 Visual
Format profile : Advanced Simple@L5
Format settings, BVOP : 2
Format settings, QPel : No
Format settings, GMC : No warppoints
Format settings, Matrix : Default (H.263)
Muxing mode : Packed bitstream
Codec ID : XVID
Codec ID/Hint : XviD
Duration : 1h 31mn
Bit rate : 1 273 Kbps
Width : 624 pixels
Height : 264 pixels
Display aspect ratio : 2.35:1
Frame rate : 25.000 fps
Color space : YUV
Chroma subsampling : 4:2:0
Bit depth : 8 bits
Scan type : Progressive
Compression mode : Lossy
Bits/(Pixel*Frame) : 0.309
Stream size : 833 MiB (90%)
Writing library : XviD 64

Audio
ID : 1
Format : MPEG Audio
Format version : Version 1
Format profile : Layer 3
Codec ID : 55
Codec ID/Hint : MP3
Duration : 1h 31mn
Bit rate mode : Constant
Bit rate : 128 Kbps
Channel(s) : 2 channels
Sampling rate : 44.1 KHz
Compression mode : Lossy
Stream size : 83.7 MiB (9%)
Alignment : Split accross interleaves
Interleave, duration : 40 ms (1.00 video frame)
Interleave, preload duration : 500 ms


Plot:
Two top CIA operatives wage an epic battle against one another after they discover they are dating the same woman.

TRAILER:
[embed=youtube]http://www.youtube.com/watch?v=FsAqVvlR5DQ&feature=player_embedded[/embed]

image
image
image
image

Greets:

CRYS,IMAGINE,LKRG,FXG,3Li,FLAWL3SS,TA,iLLUSiON,EMBER,HOPE,GooN,BBnRG,NOGRP,ETRG,BHRG,iLLUMiNATi,MiSTERE.ViSiON,DTRG SAFCuk009,LU,TheFalcon007,MYSTiC,PrisM,Noir,WBZ,LAP,Rx,Kingdom,SAFCuk009+Fabreezy,HDLiTE,TWiZTED,ExtraTorrentRG.ELEKTRI4KA,MAGNAT,CM8
And to all the other p2p grps past and present




Make sure its a real Feel-Free release @ http://extratorrent.com

Thanks to all who promotes release Feel-Free !!!

Related Torrents

torrent name size files age seed leech

Sharing Widget


Download torrent
924.36 MB
seeders:0
leechers:0
This Means War 2012 Cam XviD Feel-Free



To share this torrent use the code below and insert it into comments, status messages, forum posts or your signature.

Torrent: This Means War 2012 Cam XviD Feel-Free

Trackers

tracker name
http://10.rarbg.com/announce
http://pow7.com/announce
udp://tracker.publicbt.com:80/announce
udp://tracker.1337x.org:80/announce
udp://tracker.istole.it:80/announce
http://tracker.istole.it/announce
http://tracker.openbittorrent.com/announce
udp://tracker.openbittorrent.com:80/announce
http://tracker.publicbt.com/announce
http://tracker.novalayer.org:6969/announce
µTorrent compatible trackers list

Locations

name
KickassTorrents
ExtraTorrent
Limetorrents
Torrent hash: B263DA28EDE83152115755D4CB213316A3E10042

All Comments

audio
6/10
video
4/10
please, leave only comments related to that torrent
Sign In

audio: 7video: 5
cam, wait for better, but thanks for the effort!
audio: 6video: 6
excellent ty
audio: 7video: 3
watchable, but out of focus.thanks

User Opinions

northrup742632, dennyuel1979, MohawkPete1096, QBSBear891, imakez4u450
shwartzi1578, leanux487
Report a bug Open chat