The Three Stooges 2012 BRRip XviD AC3 - ADTRG

seeders: 0
leechers: 0
updated:
Added by extremerules36.23K in Movies
Torrent verified by LRS25K, 3 years and 9 months ago. Downloaded 10 times.

Summary:

While trying to save their childhood orphanage, Moe, Larry, and Curly inadvertently stumble into a murder plot and wind up starring in a reality TV show.

Written by Hawzerstar45.26K
Available in versions: 1080p720pBDRipHDRiPDVDDVDRip
The Three Stooges 2012 BRRip XviD AC3 - ADTRG (Size: 1.4 GB)
  Readme.txt 56 bytes
  Torrent downloaded from Demonoid.me.txt 46 bytes
  Torrent downloaded from AhaShare.com.txt 58 bytes
  The Three Stooges 2012 BRRip XviD AC3 - ADTRG.avi 1.39 GB
  sample.avi 18.91 MB

Description

http://imageplay.net/img/tya22274456/The_Three_Stooges_2012.jpg

IMDB: http://www.imdb.com/title/tt0383010/

Plot:
While trying to save their childhood orphanage, Moe, Larry, and Curly
inadvertently stumble into a murder plot and wind up starring in a reality
TV show.

http://static.iptorrents.com/ipt/pic/info.png

Format : AVI
Format/Info : Audio Video Interleave
File size : 1.39 GiB
Duration : 1h 32mn
Overall bit rate : 2 155 Kbps
Writing application : VirtualDubMod 1.5.10.2 (build 2540/release)
Writing library : VirtualDubMod build 2540/release

Video
ID : 0
Format : MPEG-4 Visual
Format profile : Advanced Simple@L5
Format settings, BVOP : 2
Format settings, QPel : No
Format settings, GMC : No warppoints
Format settings, Matrix : Default (H.263)
Codec ID : XVID
Codec ID/Hint : XviD
Duration : 1h 32mn
Bit rate : 1 697 Kbps
Width : 720 pixels
Height : 384 pixels
Display aspect ratio : 1.875
Frame rate : 23.976 fps
Color space : YUV
Chroma subsampling : 4:2:0
Bit depth : 8 bits
Scan type : Progressive
Compression mode : Lossy
Bits/(Pixel*Frame) : 0.256
Stream size : 1.09 GiB (79%)
Writing library : XviD 1.2.1 (UTC 2008-12-04)

Audio
ID : 1
Format : AC-3
Format/Info : Audio Coding 3
Mode extension : CM (complete main)
Codec ID : 2000
Duration : 1h 32mn
Bit rate mode : Constant
Bit rate : 448 Kbps
Channel(s) : 6 channels
Channel positions : Front: L C R, Side: L R, LFE
Sampling rate : 48.0 KHz
Bit depth : 16 bits
Compression mode : Lossy
Stream size : 295 MiB (21%)
Alignment : Split accross interleaves
Interleave, duration : 42 ms (1.00 video frame)
Interleave, preload duration : 500 ms

http://static.iptorrents.com/ipt/pic/screens.png

http://imageplay.net/img/tya22274472/a.png
http://imageplay.net/img/tya22274471/b.png
http://imageplay.net/img/tya22274470/c.png
http://imageplay.net/img/tya22274469/d.png
http://imageplay.net/img/tya22274468/e.png
http://imageplay.net/img/tya22274467/f.png

Related Torrents

torrent name size files age seed leech

Sharing Widget


Download torrent
1.4 GB
seeders:0
leechers:0
The Three Stooges 2012 BRRip XviD AC3 - ADTRG



To share this torrent use the code below and insert it into comments, status messages, forum posts or your signature.

Torrent: The Three Stooges 2012 BRRip XviD AC3 - ADTRG

Trackers

tracker name
udp://tracker.publicbt.com:80/announce
udp://tracker.istole.it:80/announce
http://tracker.ex.ua/announce
udp://tracker.openbittorrent.com:80/announce
udp://9.rarbg.com:2710/announce
http://tracker.pow7.com/announce
http://ipv4.tracker.harry.lu/announce
http://inferno.demonoid.me:3390/announce
udp://open.demonii.com:1337/announce
http://cpleft.com:2710/announce
ĀµTorrent compatible trackers list

Locations

name
KickassTorrents
Torrent hash: 2A9A9198489DE435E750F639504B7CC4869506D0

All Comments

audio
8/10
video
8/10
please, leave only comments related to that torrent
Sign In

audio: 9video: 9
Great quality trusted download :D
audio: 8video: 7
Ok, watchable
Download was good,
better than the movie for sure!
the series were better!
oh well, a one time thing, for the classics!
audio: 10video: 10
Good quality
What resolution???
You guys tried it on ps3 yet?
Nevermind... The video works fine on the PS3.

audio: 10video: 10
nice comedy film :P
audio: 8video: 8
gr8 feeds...my tnx.
audio: 6video: 8
It's a little quiet, if you ask me.
Show More All

User Opinions

Mantesh248.07K, PhriedPhish.74.27K, Dataktheugly6947, Attiq2093, Nick_Iscovitz786, Darkangel231383, MegumiTenshi246, alinalex1988196, lostangel78125, coczko104 ... And 29 more
Report a bug