The Texas Chainsaw Massacre (1974) [DVDRip][KooKoo]

seeders: 0
leechers: 0
updated:
Added in Movies
Torrent verified. Downloaded 51 times.

Summary:

Five friends visiting their grandfather's house in the country are hunted and terrorized by a chain-saw wielding killer and his family of grave-robbing cannibals.

Written by thePiratePimp69.01K
Available in versions: 1080p720pBDRipHDRiPDVDRipx264
The Texas Chainsaw Massacre (1974) [DVDRip][KooKoo] (Size: 808.34 MB)
  KooKoo.nfo 6.08 KB
  sample.avi 9.15 MB
  The Texas ChainSaw Massacre (1974) [DVDRip][KooKoo].avi 799.18 MB
  Torrent downloaded from Demonoid.com.txt 47 bytes
  tracked_by_h33t_com.txt 23 bytes

Description











±ÛÛÛÛÛ± ±ÛÛÛÛÛÛ±ÛÛÛÛÛÛ±ÛÛÛÛÛÛ±ÛÛÛÛÛ± ±ÛÛÛÛÛÛ±ÛÛÛÛÛÛ±ÛÛÛÛÛÛ

±ÛÛÛÛÛ±±ÛÛÛÛÛÛ±±ÛÛÛÛÛÛ±ÛÛÛÛÛÛ±ÛÛÛÛÛ±±ÛÛÛÛÛÛ±±ÛÛÛÛÛÛ±ÛÛÛÛÛÛ

±ÛÛÛÛÛ±ÛÛÛÛÛÛ± ±ÛÛÛÛÛÛ±ÛÛÛÛÛÛ±ÛÛÛÛÛ±ÛÛÛÛÛÛ± ±ÛÛÛÛÛÛ±ÛÛÛÛÛÛ

±ÛÛÛÛÛÛÛÛÛÛÛ± ±ÛÛÛÛÛÛ±ÛÛÛÛÛÛ±ÛÛÛÛÛÛÛÛÛÛÛ± ±ÛÛÛÛÛÛ±ÛÛÛÛÛÛ

±ÛÛÛÛÛÛÛÛÛÛ± ±ÛÛ±±ÛÛ±ÛÛ±±ÛÛ±ÛÛÛÛÛÛÛÛÛÛ± ±ÛÛ±±ÛÛ±ÛÛ±±ÛÛ

±ÛÛÛÛÛÛÛÛÛ± ±ÛÛ±±ÛÛ±ÛÛ±±ÛÛ±ÛÛÛÛÛÛÛÛÛ± ±ÛÛ±±ÛÛ±ÛÛ±±ÛÛ

±ÛÛÛÛÛÛÛÛÛ± ±ÛÛ±±ÛÛ±ÛÛ±±ÛÛ±ÛÛÛÛÛÛÛÛÛ± ±ÛÛ±±ÛÛ±ÛÛ±±ÛÛ

±ÛÛÛÛÛÛÛÛÛÛ± ±ÛÛÛÛÛÛ±ÛÛÛÛÛÛ±ÛÛÛÛÛÛÛÛÛÛ± ±ÛÛÛÛÛÛ±ÛÛÛÛÛÛ

±ÛÛÛÛÛÛÛÛÛÛÛ± ±ÛÛÛÛÛÛ±ÛÛÛÛÛÛ±ÛÛÛÛÛÛÛÛÛÛÛ± ±ÛÛÛÛÛÛ±ÛÛÛÛÛÛ

±ÛÛÛÛÛ±ÛÛÛÛÛÛ± ±ÛÛÛÛÛÛ±ÛÛÛÛÛÛ±ÛÛÛÛÛ±ÛÛÛÛÛÛ± ±ÛÛÛÛÛÛ±ÛÛÛÛÛÛ

±ÛÛÛÛÛ±±ÛÛÛÛÛÛ±±ÛÛÛÛÛÛ±ÛÛÛÛÛÛ±ÛÛÛÛÛ±±ÛÛÛÛÛÛ±±ÛÛÛÛÛÛ±ÛÛÛÛÛÛ

±ÛÛÛÛÛ± ±ÛÛÛÛÛÛ ±±±±±±±±ÛÛÛÛÛ± ±ÛÛÛÛÛÛ ±±±±±±±







±±±±±±±±±±±±±±±±±±±±±±±±±±±±±±±±±±±±±±±±±±±±±±±±±±±±±±±±±±±±±±±±±±±±±±±±±±±±±±±

The Texas ChainSaw Massacre (1974)

±±±±±±±±±±±±±±±±±±±±±±±±±±±±±±±±±±±±±±±±±±±±±±±±±±±±±±±±±±±±±±±±±±±±±±±±±±±±±±±



The original classic horror film from Tobe Hooper about the twisted world of

the ultimate dysfunctional family which has been painstakingly restored from

the original 16mm ECO negatives. This is the bizarre and tragically gruesome

account of what happened to five young friends one summer afternoon in rural

Texas. After hearing reports of grave robbing, the group sets out to check on

a family grave. Soon after, one-by-one they wander into the murderous clutches

of Leatherface..........................................



IMDB URL: http://www.imdb.com/title/tt0072271/
/>


±±±±±±±±±±±±±±±±±±±±±±±±±±±±±±±±±±±±±±±±±±±±±±±±±±±±±±±±±±±±±±±±±±±±±±±±±±±±±±±

File Information

±±±±±±±±±±±±±±±±±±±±±±±±±±±±±±±±±±±±±±±±±±±±±±±±±±±±±±±±±±±±±±±±±±±±±±±±±±±±±±±

General

Complete name : The Texas ChainSaw Massacre (1974) [DVDRip][KooKoo].avi

Format : AVI

Format/Info : Audio Video Interleave

File size : 799 MiB

Duration : 1h 23mn

Overal bit rate : 1334 Kbps

Movie name : The Texas ChainSaw Massacre (1974) [DVDRip][KooKoo]

Genre : Horror

Recorded date : 07/02/2008

Copyright : Ripped By KooKoo

Comment : Subtitles NOT included.

IMIU :
http://www.imdb.com/title/tt0072271/
/>
_______________________________________________________________________________

Video

Format : MPEG-4 Visual

Format profile : Streaming Video@L1

Format settings, BVOP : Yes

Format settings, QPel : No

Format settings, GMC : No warppoints

Format settings, Matrix : Default

Muxing mode : Packet Bitstream

Codec ID : XVID

Codec ID/Hint : XviD

Duration : 1h 23mn

Bit rate : 1197 Kbps

Width : 608 pixels

Height : 336 pixels

Display aspect ratio : 16/9

Frame rate : 23.976 fps

Resolution : 8 bits

Colorimetry : 4:2:0

Scan type : Progressive

Bits/(Pixel*Frame) : 0.244

Stream size : 717 MiB

Writing library : XviD 1.2.0.dev47 (UTC 2006-11-01)

_______________________________________________________________________________

Audio

Format : MPEG Audio

Format version : Version 1

Format profile : Layer 3

Codec ID : 55

Codec ID/Hint : MP3

Duration : 1h 23mn

Bit rate mode : Constant

Bit rate : 128 Kbps

Minimum bit rate : 128 Kbps

Channel(s) : 2 channels

Sampling rate : 48.0 KHz

Resolution : 16 bits

Stream size : 76.7 MiB

Writing library : LAME3.97

Encoding settings : CBR

Language : english

_______________________________________________________________________________

±±±±±±±±±±±±±±±±±±±±±±±±±±±±±±±±±±±±±±±±±±±±±±±±±±±±±±±±±±±±±±±±±±±±±±±±±±±±±±±

Screenshots

±±±±±±±±±±±±±±±±±±±±±±±±±±±±±±±±±±±±±±±±±±±±±±±±±±±±±±±±±±±±±±±±±±±±±±±±±±±±±±±



http://i228.photobucket.com/...napshot20080703025957.jpg
/>
http://i228.photobucket.com/...napshot20080703025809.jpg
/>
http://i228.photobucket.com/...napshot20080703025929.jpg
/>
http://i228.photobucket.com/...napshot20080703025833.jpg
/>




±±±±±±±±±±±±±±±±±±±±±±±±±±±±±±±±±±±±±±±±±±±±±±±±±±±±±±±±±±±±±±±±±±±±±±±±±±±±±±±

DVDCover

±±±±±±±±±±±±±±±±±±±±±±±±±±±±±±±±±±±±±±±±±±±±±±±±±±±±±±±±±±±±±±±±±±±±±±±±±±±±±±±



http://i228.photobucket.com/...ee257/kk1987666/2790h.jpg
/>
http://i228.photobucket.com/...e257/kk1987666/2790bh.jpg
/>


±±±±±±±±±±±±±±±±±±±±±±±±±±±±±±±±±±±±±±±±±±±±±±±±±±±±±±±±±±±±±±±±±±±±±±±±±±±±±±±

Source Information

±±±±±±±±±±±±±±±±±±±±±±±±±±±±±±±±±±±±±±±±±±±±±±±±±±±±±±±±±±±±±±±±±±±±±±±±±±±±±±±



Production Year: 1974

Release Date: 10/6/1998

Length: 84 mins

Rating: R

UPC Code: 013023009394

System: NTSC

Region: 1

Aspect Ratio: Widescreen 1.85:1 Color

Format: DVD

______________________________________________________________________________



Ripped By KooKoo

You can find me at h33t and DarksideRg

Related Torrents

torrent name size files age seed leech

Sharing Widget


Download torrent
808.34 MB
seeders:0
leechers:0
The Texas Chainsaw Massacre (1974) [DVDRip][KooKoo]



To share this torrent use the code below and insert it into comments, status messages, forum posts or your signature.

Torrent: The Texas Chainsaw Massacre (1974) [DVDRip][KooKoo]

Trackers

tracker name
udp://tracker.openbittorrent.com:80/announce
udp://tracker.publicbt.com:80/announce
http://tracker.openbittorrent.com/announce
http://tracker.publicbt.com/announce
µTorrent compatible trackers list

Locations

name
Mininova
ThePirateBay
Fenopy
1337x
ExtraTorrent
Torrent hash: 6e299d24c7f6b371768da51406ec4e108a65eb76

All Comments

audio
8/10
video
8/10
please, leave only comments related to that torrent
Sign In

audio: 10video: 10
Thanks for the upload! (=⌒▽⌒=)
audio: 9video: 9
Very good upload of a classic! Thank you so much :-)
audio: 10video: 10
classic...
audio: 10video: 10
thanks
audio: 9video: 10
Brilliant
audio: 8video: 8
real horror
Show More All

User Opinions

Bulley1415, donedeal1081, olhos1072, TanjilOvi1051, dvcks139, C&D83, tonyandre8558, sickaxe134229, LadyDemise9, meka21 ... And 123 more
SW33TZ680, keyantkarthi231, RealityBoy2439
Report a bug