The Sorcerers Apprentice 2010 DVDRip

seeders: 0
leechers: 0
updated:
Added by iwannafan2615 in Movies
Downloaded 10 times.

  • add The Sorcerer's Apprentice to bookmarks
  • Release date: 14 July 2010
  • Writers: Lawrence Konner (screen story), Mark Rosenthal (screen story), Matt Lopez (screen story), Matt Lopez (screenplay), Doug Miro (screenplay), Carlo Bernard (screenplay)
  • Director: Jon Turteltaub
  • Language: English
Summary:

Balthazar Blake (Nicolas Cage) is a master sorcerer in modern-day Manhattan trying to defend the city from his arch-nemesis, Maxim Horvath (Alfred Molina). Balthazar can't do it alone, so he recruits Dave Stutler (Jay Baruchel), a seemingly average guy who demonstrates hidden potential, as his reluctant protégé. The sorcerer gives his unwilling accomplice a crash course in the art and science of magic, and together, these unlikely partners work to stop the forces of darkness. It'll take all the courage Dave can muster to survive his training, save the city and get the girl as he becomes The Sorcerer's Apprentice.

Written by xDominicx231.92K
The Sorcerers Apprentice 2010 DVDRip (Size: 1.38 GB)
  The Sorcerers Apprentice 2010 DVDRip www.IWANNADOWNLOAD.com.avi 1.37 GB
  sample.avi 10.37 MB
  The Sorcerers Apprentice DVD IWANNADOWNLOAD.com INFO.txt 2.38 KB
  Torrent downloaded from Demonoid.com.txt 47 bytes
  Torrent downloaded from extratorrent.com.txt 40 bytes
  Torrent downloaded from Rarbg.com.txt 33 bytes
  tracked_by_h33t_com.txt 23 bytes
  Subs

Description

Filename:
The Sorcerers Apprentice DVDRip XviD-DiAMOND

http://www.imdb.com/title/tt0963966

image
image
image
image

Video
ID                               : 0
Format                           : MPEG-4 Visual
Format profile                   : AdvancedSimple@L5
Format settings, BVOP            : Yes
Format settings, QPel            : No
Format settings, GMC             : No warppoints
Format settings, Matrix          : Default (MPEG)
Muxing mode                      : Packed bitstream
Codec ID                         : XVID
Codec ID/Hint                    : XviD
Duration                         : 1h 49mn
Bit rate                         : 1 401 Kbps
Width                            : 640 pixels
Height                           : 272 pixels
Display aspect ratio             : 2.35:1
Frame rate                       : 23.976 fps
Resolution                       : 24 bits
Colorimetry                      : 4:2:0
Scan type                        : Progressive
Bits/(Pixel*Frame)               : 0.336
Stream size                      : 1.07 GiB (78%)
Writing library                  : XviD 1.2.1 (UTC 2008-12-04)

Audio
ID                               : 1
Format                           : AC-3
Format/Info                      : Audio Coding 3
Codec ID                         : 2000
Duration                         : 1h 49mn
Bit rate mode                    : Constant
Bit rate                         : 384 Kbps
Channel(s)                       : 6 channels
Channel positions                : Front: L C R, Surround: L R, LFE
Sampling rate                    : 48.0 KHz
Stream size                      : 299 MiB (21%)
Alignment                        : Split accross interleaves
Interleave, duration             : 42 ms (1.00 video frame)
Interleave, preload duration     : 500 ms

Related Torrents

torrent name size files age seed leech

Sharing Widget


Download torrent
1.38 GB
seeders:0
leechers:0
The Sorcerers Apprentice 2010 DVDRip



To share this torrent use the code below and insert it into comments, status messages, forum posts or your signature.

Torrent: The Sorcerers Apprentice 2010 DVDRip

Trackers

tracker name
udp://tracker.publicbt.com:80/announce
udp://tracker.openbittorrent.com:80/announce
http://11.rarbg.com/announce
http://exodus.1337x.org/announce
udp://inferno.demonoid.com:3408/announce
http://tracker.openbittorrent.com/announce
http://genesis.1337x.org:1337/announce
http://tracker.ex.ua/announce
http://nemesis.1337x.org/announce
http://pow7.com/announce
http://10.rarbg.com/announce
http://fr33dom.h33t.com:3310/announce
http://tracker.publicbt.com/announce
http://inferno.demonoid.com:3408/announce
µTorrent compatible trackers list

Locations

name
KickassTorrents
ThePirateBay
ExtraTorrent
1337x
Limetorrents
Limetorrents
Torrent hash: ae71555aed922de6bcbe8fafa5693b0e5c6b0d99

Top Comments

2
tchanah2351
audio: 10video: 10
Great

All Comments

audio
9/10
video
9/10
please, leave only comments related to that torrent
Sign In

audio: 10video: 10
loved this movie canny beat a gd nicolas cage flick audio /10 video /10
audio: 9video: 9
A very good movie, excellent upload, good quality throughout, many thanks,
audio: 10video: 10
excellent quality, thanks
audio: 6video: 6
nice quality not bad...
audio: 8video: 9
good one
audio: 8video: 9
very good
audio: 10video: 10
Excellent film will watch out for more from vladlepes3176 - great uploader thanx
Show More All

User Opinions

pardeep33370.11K, babY-s0n1a5809, BadboyPitbull2382, pebe1540, peterboy11770, Ravenholdt1752, Runamuk419, rosefaithlove169, sokl131, booneski12 ... And 90 more
DarkLotus13276
Report a bug