The Prestige.2006.Dual-Audio{Hindi-English}BRRip.aaaevilacharya

seeders: 0
leechers: 0
updated:
Added in Movies
Torrent verified. Downloaded 10 times.

  • add The Prestige to bookmarks
  • Release date: 17 October 2006
  • Writers: Jonathan Nolan (screenplay), Christopher Nolan (screenplay), Christopher Priest (novel)
  • Director: Christopher Nolan
  • Languages: English , Hindi
  • Subtitles: English, Hindi
Summary:

The rivalry between two magicians becomes more exacerbated by their attempt to perform the ultimate illusion.

Written by 5fingerdis65.72K
Available in versions: 1080p720pBlu-RayHDRiPDVDRipx265
The Prestige.2006.Dual-Audio{Hindi-English}BRRip.aaaevilacharya (Size: 1.35 GB)
  The Prestige.2006.Dual-Audio{Hindi-English}BRRip.aaaevilacharya.mkv 1.35 GB
  TIrG.jpg 71.59 KB
  Torrent downloaded from.txt 164 bytes

Description

General

Complete name : The Prestige.2006.Dual-Audio{Hindi-English}BRRip.aaaevilacharya.mkv
Format : Matroska
File size : 1.35 GiB
Duration : 2h 10mn
Overall bit rate : 1 486 Kbps
Movie name : aaaevilacharya{TiRG}
Encoded date : UTC 2011-01-17 03:48:46


Video
ID : 1
Format : AVC
Format/Info : Advanced Video Codec
Format profile : High@L5.1
Format settings, CABAC : Yes
Format settings, ReFrames : 1 frame
Muxing mode : Container profile=Unknown@5.1
Codec ID : V_MPEG4/ISO/AVC
Duration : 2h 10mn
Bit rate : 1 200 Kbps
Width : 704 pixels
Height : 288 pixels
Display aspect ratio : 2.35:1
Original display aspect ratio : 2.40:1
Frame rate : 23.976 fps
Color space : YUV
Chroma subsampling : 4:2:0
Bit depth : 8 bits
Scan type : Progressive
Bits/(Pixel*Frame) : 0.247
Stream size : 1.06 GiB (79%)
Title : aaaevilacharya{TiRG}


Audio #1
ID : 2
Format : MPEG Audio
Format version : Version 1
Format profile : Layer 3
Mode : Joint stereo
Mode extension : MS Stereo
Codec ID : A_MPEG/L3
Codec ID/Hint : MP3
Duration : 2h 10mn
Bit rate mode : Constant
Bit rate : 128 Kbps
Channel(s) : 2 channels
Sampling rate : 44.1 KHz
Video delay : 40ms
Stream size : 119 MiB (9%)
Title : aaaevilacharya{TiRG}
Writing library : LAME3.96.1

Language : Hindi

Audio #2
ID : 3
Format : AC-3
Format/Info : Audio Coding 3
Mode extension : CM (complete main)
Codec ID : A_AC3
Duration : 2h 10mn
Bit rate mode : Constant
Bit rate : 160 Kbps
Channel(s) : 6 channels
Channel positions : Front: L C R, Side: L R, LFE
Sampling rate : 48.0 KHz
Stream size : 149 MiB (11%)
Title : aaaevilacharya{TiRG}

Language : English


SCREENSHOTS

https://img\s1.imageshack.us.../theprestige2006r1bluray.jpg
https://img\s1.imageshack.us.../theprestige2006dualaudi.jpg
https://img\s1.imageshack.us.../theprestige2006dualaudi.jpg
https://img\s1.imageshack.us.../theprestige2006dualaudi.jpg
https://img\s1.imageshack.us.../theprestige2006dualaudi.jpg
https://img\s1.imageshack.us.../theprestige2006dualaudi.jpg
https://img\s1.imageshack.us.../theprestige2006dualaudi.jpg
https://img\s1.imageshack.us.../theprestige2006dualaudi.jpg
https://img\s1.imageshack.us.../theprestige2006dualaudi.jpg
https://img\s1.imageshack.us.../theprestige2006dualaudi.jpg
https://img\s1.imageshack.us.../theprestige2006dualaudi.jpg
https://img\s1.imageshack.us.../theprestige2006dualaudi.jpg
https://img\s1.imageshack.us.../theprestige2006dualaudi.jpg

Related Torrents

torrent name size files age seed leech

Sharing Widget


Download torrent
1.35 GB
seeders:0
leechers:0
The Prestige.2006.Dual-Audio{Hindi-English}BRRip.aaaevilacharya



To share this torrent use the code below and insert it into comments, status messages, forum posts or your signature.

Torrent: The Prestige.2006.Dual-Audio...English}BRRip.aaaevilacharya

Trackers

tracker name
http://tracker.ex.ua/announce
udp://tracker.openbittorrent.com:80/announce
http://pow7.com/announce
udp://tracker.istole.it:80/announce
udp://tracker.publicbt.com:80/announce
http://tracker.csze.com/announce
udp://tracker.torrentbox.com:2710/announce
http://exodus.1337x.org/announce
http://bt1.the9.com:6969/announce
udp://fr33domtracker.h33t.com:3310/announce
┬ÁTorrent compatible trackers list

Locations

name
ThePirateBay
Limetorrents
Limetorrents
ExtraTorrent
Torrent hash: e1a2c48481fed38384ec4ec93c0c2114458bc547

All Comments

audio
9/10
video
9/10
please, leave only comments related to that torrent
Sign In

seeds plzzzz
no seeds, plz seeds

Plz Plz Plz seeedsss
audio: 8video: 8
nice but no seeds....
audio: 10video: 10
thanks
audio: 9video: 9
Great quality @ dis Size. Lovely Movie. loveliness
Show More All

User Opinions

Killersboy3798, ishant1001744, Mitul_Patel1230, softdisk627, Studster483, gittha482, badass2.0463, virpara418, mayatkarin329, cuckoo42050 ... And 5 more
Report a bug Open chat