The Muppets 2011 DVDSCR XViD -INSPiRAL

seeders: 2
leechers: 0
updated:
Added by legend66.5K in Movies
Torrent verified. Downloaded 10 times.

Summary:

The Muppets is a 2011 American musical comedy film, and the first Muppets theatrical release in twelve years.

Written by P4iN10.92K
Available in versions: 720pHDRiPDVDRipScreener
The Muppets 2011 DVDSCR XViD -INSPiRAL (Size: 1.44 GB)
  The Muppets 2011 DVDSCR XViD - INSPiRAL.avi 1.44 GB
  The Muppets 2011 DVDSCR XViD - INSPiRAL.nfo 2.74 KB
  Torrent downloaded from extratorrent.com.txt 353 bytes

Description







http://img23.binimage.org/87/ed/48/themuppets2011moviefinalposter.jpg
TITLE:

The Muppets 2011 DVDSCR XViD - INSPiRAL

IMDB:

http://www.imdb.com/title/tt1204342/


SOURCES:

VIDEO - Deadpool THANKS
AUDIO - Deadpool THANKS
SUBS - None Add

STATS:

Video
ID : 0
Format : MPEG-4 Visual
Format profile : Advanced Simple@L5
Format settings, BVOP : 2
Format settings, QPel : No
Format settings, GMC : No warppoints
Format settings, Matrix : Default (MPEG)
Muxing mode : Packed bitstream
Codec ID : XVID
Codec ID/Hint : XviD
Duration : 1h 42mn
Bit rate : 1 808 Kbps
Width : 720 pixels
Height : 384 pixels
Display aspect ratio : 1.875
Frame rate : 23.976 fps
Color space : YUV
Chroma subsampling : 4:2:0
Bit depth : 8 bits
Scan type : Progressive
Compression mode : Lossy
Bits/(Pixel*Frame) : 0.273
Stream size : 1.30 GiB (90%)
Writing library : XviD 64

Audio
ID : 1
Format : MPEG Audio
Format version : Version 1
Format profile : Layer 3
Codec ID : 55
Codec ID/Hint : MP3
Duration : 1h 42mn
Bit rate mode : Constant
Bit rate : 192 Kbps
Channel(s) : 2 channels
Sampling rate : 48.0 KHz
Compression mode : Lossy
Stream size : 141 MiB (10%)
Alignment : Split accross interleaves
Interleave, duration : 42 ms (1.00 video frame)
Interleave, preload duration : 500 ms
Writing library : LAME3.98.4




NOTES:

Sources:
Some nice sweet ass vobs .....audio was pcm and the video looked bang on,fine tuning needed but nothing more.

Workdone:
Just a simple rip with some minor tweaks ...chorma,contrast,fix ivtc and thats its really folks.
Encoded the pcm audio to mp3 and remuxed back to our rip...

Overall v9 a 9 m7 ....muppets,rollin back the yrs lol.


SCREENS:

http://img832.imageshack.us/img832/2199/en4bi.png
http://img15.imageshack.us/img15/9884/awcr2.png
http://img837.imageshack.us/img837/9089/rlkms.png
http://img593.imageshack.us/img593/9154/sa24c.png
http://img827.imageshack.us/img827/7763/tmwfb.png

Related Torrents

torrent name size files age seed leech

Sharing Widget


Download torrent
1.44 GB
seeders:2
leechers:0
The Muppets 2011 DVDSCR XViD -INSPiRAL



To share this torrent use the code below and insert it into comments, status messages, forum posts or your signature.

Torrent: The Muppets 2011 DVDSCR XViD -INSPiRAL

Trackers

tracker name
http://tracker.pow7.com/announce
http://tracker.ex.ua/announce
udp://tracker.publicbt.com:80/announce
udp://tracker.openbittorrent.com:80/announce
http://tracker.torrentbay.to:6969/announce
http://10.rarbg.com/announce
http://tracker.openbittorrent.com/announce
http://ipv4.tracker.harry.lu/announce
udp://tracker.1337x.org:80/announce
http://exodus.desync.com:6969/announce
http://fr33dom.h33t.com:3310/announce
http://tracker.publicbt.com/announce
udp://tracker.novalayer.org:6969/announce
µTorrent compatible trackers list

Locations

name
KickassTorrents
ThePirateBay
ExtraTorrent
Torrent hash: 0AD9003C569968DA1A1FBAB53FD4297ED6E11D1B

All Comments

audio
8/10
video
9/10
please, leave only comments related to that torrent
Sign In

audio: 7video: 7
thank you
audio: 9video: 9
thanks for the upload fast to get and great quality
PLEASE, some1 upload 'Devil Went To Jamaica' muppets thanks
audio: 9video: 9
bedankt
audio: 8video: 10
Good speed downloading , great video awesome!
audio: 6video: 9
The sound was really quiet but video was pretty much perfect.
audio: 9video: 9
Great quality & ok flick!
Show More All

User Opinions

Report a bug