The.Muppets.2011.DvDRip.XviD Feel-Free

seeders: 0
leechers: 0
updated:
Added by feel-free20.34K in Movies
Torrent verified. Downloaded 0 times.

Summary:

The Muppets is a 2011 American musical comedy film, and the first Muppets theatrical release in twelve years.

Written by P4iN10.93K
Available in versions: 720pHDRiPDVDRipScreener
The.Muppets.2011.DvDRip.XviD Feel-Free (Size: 1.22 GB)
  coverepz.jpg 64.05 KB
  The.Muppets.2011.DvDRip.XviD Feel-Free.avi 1.21 GB
  The.Muppets.2011.DvDRip.XviD Feel-Free.nfo 3.28 KB
  Torrent downloaded from extratorrent.com.txt 171 bytes
  vlcsnap-2012-02-27-17h50m40s160.png 373.31 KB
  vlcsnap-2012-02-27-17h50m58s72.png 283.7 KB
  vlcsnap-2012-02-27-17h51m53s107.png 445.63 KB
  vlcsnap-2012-02-27-17h54m13s243.png 321.17 KB
  vlcsnap-2012-02-27-17h54m57s143.png 436.36 KB

Description

http://img3.imageshack.us/img3/6145/coverepz.jpg


Genre:Comedy | Drama | Family
Language:English
IMDb:http://www.imdb.com/title/tt1204342/
Source:INSPiRAL DVD Thanks!
Encoder:Tony

Format : AVI
Format/Info : Audio Video Interleave
File size : 1.21 GiB
Duration : 1h 42mn
Overall bit rate : 1 692 Kbps

Video
ID : 0
Format : MPEG-4 Visual
Format profile : Advanced Simple@L5
Format settings, BVOP : 1
Format settings, QPel : No
Format settings, GMC : No warppoints
Format settings, Matrix : Default (H.263)
Codec ID : XVID
Codec ID/Hint : XviD
Duration : 1h 42mn
Bit rate : 1 458 Kbps
Width : 640 pixels
Height : 360 pixels
Display aspect ratio : 16:9
Frame rate : 25.000 fps
Color space : YUV
Chroma subsampling : 4:2:0
Bit depth : 8 bits
Scan type : Progressive
Compression mode : Lossy
Bits/(Pixel*Frame) : 0.253
Stream size : 1.05 GiB (86%)
Writing library : XviD 1.2.1 (UTC 2008-12-04)

Audio
ID : 1
Format : AC-3
Format/Info : Audio Coding 3
Mode extension : CM (complete main)
Codec ID : 2000
Duration : 1h 42mn
Bit rate mode : Constant
Bit rate : 224 Kbps
Channel(s) : 2 channels
Channel positions : Front: L R
Sampling rate : 48.0 KHz
Bit depth : 16 bits
Compression mode : Lossy
Stream size : 165 MiB (13%)
Alignment : Aligned on interleaves
Interleave, duration : 40 ms (1.00 video frame)
Interleave, preload duration : 512 ms


Plot:
With the help of three fans, The Muppets must reunite to save their old theater from a greedy oil tycoon

TRAILER:
[embed=youtube]http://www.youtube.com/watch?v=C4YhbpuGdwQ&feature=player_embedded[/embed]

http://img688.imageshack.us/img688/5493/vlcsnap2012022717h50m40.png
http://img862.imageshack.us/img862/3216/vlcsnap2012022717h50m58.png
http://img210.imageshack.us/img210/3047/vlcsnap2012022717h51m53.png
http://img821.imageshack.us/img821/3598/vlcsnap2012022717h54m57.png
http://img163.imageshack.us/img163/7074/vlcsnap2012022717h54m13.png

Greets:

CRYS,IMAGINE,LKRG,FXG,3Li,FLAWL3SS,TA,iLLUSiON,EMBER,HOPE,GooN,BBnRG,NOGRP,ETRG,BHRG,iLLUMiNATi,MiSTERE.ViSiON,DTRG SAFCuk009,LU,TheFalcon007,MYSTiC,PrisM,Noir,WBZ,LAP,Rx,Kingdom,SAFCuk009+Fabreezy,HDLiTE,TWiZTED,ExtraTorrentRG.ELEKTRI4KA,MAGNAT,CM8
And to all the other p2p grps past and present




Make sure its a real Feel-Free release @ http://extratorrent.com

Thanks to all who promotes release Feel-Free !!!

Related Torrents

torrent name size files age seed leech

Sharing Widget


Download torrent
1.22 GB
seeders:0
leechers:0
The.Muppets.2011.DvDRip.XviD Feel-Free



To share this torrent use the code below and insert it into comments, status messages, forum posts or your signature.

Torrent: The.Muppets.2011.DvDRip.XviD Feel-Free

Trackers

tracker name
udp://tracker.1337x.org:80/announce
udp://tracker.publicbt.com:80/announce
udp://tracker.istole.it:80/announce
udp://tracker.openbittorrent.com:80/announce
http://pow7.com/announce
http://exodus.desync.com:6969/announce
udp://fr33domtracker.h33t.com:3310/announce
http://tracker.novalayer.org:6969/announce
ĀµTorrent compatible trackers list

Locations

name
KickassTorrents
ThePirateBay
ExtraTorrent
Limetorrents
Torrent hash: D80EB42B01A51BF7A765577BB4DC25CEF96B727D

All Comments

audio
9/10
video
9/10
please, leave only comments related to that torrent
Sign In

audio: 10video: 10
good copy, thanks, kids loved it
audio: 10video: 10
Great quality as always!Thanks!!!
How funny = everyone is waiting on you, FeelFree! Guess you must still be the greatest! Thanks for all that you share and for always being so dependable with your quality!
audio: 9video: 9
Nice Rip! Thanks

User Opinions

gregath10.09K, Outlaw695365, torrented4902, prprettypls2058, dman0424781212, czechlucka1148, hughsface443, poton79291, handsonmands237, m_q8763 ... And 4 more
Report a bug