The Muppets 2011 CAM READNFO XViD v2 - U.S.M

seeders: 0
leechers: 0
Added on Dec 5, 2011 in Movies
Torrent verified. Downloaded 0 times.

  • add The Muppets to bookmarks
  • Release date: 12 November 2011
  • Writers: Jason Segel, Nicholas Stoller, Jim Henson (based on)
  • Language: English
Summary:
The Muppets is a 2011 American musical comedy film, and the first Muppets theatrical release in twelve years.
Written by P4iN9464
report summary
Available in versions: 720pHDRiPDVDRipTeleSync
The Muppets 2011 CAM READNFO XViD v2 - U.S.M (Size: 1.37 GB)
  Read this before playing this Video.txt 138 bytes
  sample.avi 22.54 MB
  sample.sfv 6.45 KB
  The Muppets 2011 CAM READNFO XViD v2 - U.S.M.nfo 5.25 KB
  TMV2.rar 14.31 MB
  TMV2.rar 14.31 MB
  TMV2.rar 14.31 MB
  TMV2.rar 14.31 MB
  TMV2.rar 14.31 MB
  TMV2.rar 14.31 MB
  TMV2.rar 14.31 MB
  TMV2.rar 14.31 MB
  TMV2.rar 14.31 MB
  TMV2.rar 14.31 MB
  TMV2.rar 14.31 MB
  TMV2.rar 14.31 MB
  TMV2.rar 14.31 MB
  TMV2.rar 14.31 MB
  TMV2.rar 14.31 MB
  TMV2.rar 14.31 MB
  TMV2.rar 14.31 MB
  TMV2.rar 14.31 MB
  TMV2.rar 14.31 MB
  TMV2.rar 14.31 MB
  TMV2.rar 14.31 MB
  TMV2.rar 14.31 MB
  TMV2.rar 14.31 MB
  TMV2.rar 14.31 MB
  TMV2.rar 14.31 MB
  TMV2.rar 14.31 MB
  And 71 files more

Description

,
. http://www.scenetime.com/signup.php ---> Hottest scene tracker on the net !!!

Scenetime lucky draw is started , join now and be the winner . offer is limited

Join Now http://www.scenetime.com/signup.php

seed back for speed






...................................NFO:.................................................UUUUUUUU UUUUUUUU SSSSSSSSSSSSSSS MMMMMMMM MMMMMMMM
U::::::U U::::::U SS:::::::::::::::S M:::::::M M:::::::M
U::::::U U::::::U S:::::SSSSSS::::::S M::::::::M M::::::::M
UU:::::U U:::::UU S:::::S SSSSSSS M:::::::::M M:::::::::M
U:::::U U:::::U S:::::S M::::::::::M M::::::::::M
U:::::D D:::::U S:::::S M:::::::::::M M:::::::::::M
U:::::D D:::::U S::::SSSS M:::::::M::::M M::::M:::::::M
U:::::D D:::::U SS::::::SSSSS M::::::M M::::M M::::M M::::::M
U:::::D D:::::U SSS::::::::SS M::::::M M::::M::::M M::::::M
U:::::D D:::::U SSSSSS::::S M::::::M M:::::::M M::::::M
U:::::D D:::::U S:::::S M::::::M M:::::M M::::::M
U::::::U U::::::U S:::::S M::::::M MMMMM M::::::M
U:::::::UUU:::::::U SSSSSSS S:::::S M::::::M M::::::M
UU:::::::::::::UU ...... S::::::SSSSSS:::::S ...... M::::::M M::::::M
UU:::::::::UU .::::. S:::::::::::::::SS .::::. M::::::M M::::::M
UUUUUUUUU ...... SSSSSSSSSSSSSSS ...... MMMMMMMM MMMMMMMM



The Muppets 2011 CAM READNFO XViD v2 - U.S.M


SOURCES:

lOS Muppets ( same source,but different file )
FYA

IMDB:

http://www.imdb.com/title/tt1204342/


Video
ID : 0
Format : MPEG-4 Visual
Format profile : Advanced Simple@L5
Format settings, BVOP : 2
Format settings, QPel : No
Format settings, GMC : No warppoints
Format settings, Matrix : Default (MPEG)
Muxing mode : Packed bitstream
Codec ID : XVID
Codec ID/Hint : XviD
Duration : 1h 37mn
Bit rate : 1 844 Kbps
Width : 720 pixels
Height : 320 pixels
Display aspect ratio : 2.25:1
Frame rate : 29.970 fps
Color space : YUV
Chroma subsampling : 4:2:0
Bit depth : 8 bits
Scan type : Progressive
Compression mode : Lossy
Bits/(Pixel*Frame) : 0.267
Stream size : 1.25 GiB (93%)
Writing library : XviD 64

Audio
ID : 1
Format : MPEG Audio
Format version : Version 1
Format profile : Layer 3
Codec ID : 55
Codec ID/Hint : MP3
Duration : 1h 37mn
Bit rate mode : Constant
Bit rate : 128 Kbps
Channel(s) : 2 channels
Sampling rate : 44.1 KHz
Compression mode : Lossy
Stream size : 89.1 MiB (6%)
Alignment : Split accross interleaves
Interleave, duration : 33 ms (1.00 video frame)
Interleave, preload duration : 500 ms


WORKDONE:

Right lets get the readnfo resoning out the way.....firstly the video is the same,but the file given was different and higher Q.
But sadly has been watermarked with cinetux url,not all the time but now and again through the film ...guess around 3-4 times.
Some without comparing will same say same as the others ....but thats because their brain dead and ain't looking properly or comparing
and only going off screenies ....which never tell the full story anyways.

On to workdone....well the video was 720 x 480 avi file with a framerate of 25,which is a massive NO NO.Also there was that crap intro again
added,which as nothing to do with the film and also there is one big camera movement around 28mins in.
the first 28mins had black borders on left and right and then it changes and you get them at the top and bottom.
So firstly cut the film into 2 ...removed the intro rubbish and made a script for the first part.And then again for the 2nd part.
Now both contained the same lines ...heavy noise filter,brightness,contrast,rgb eq,sharpness etc...only difference was the cropping,had to keep
one AR so it might change slightly and also opted for a different res ...2.251 which is super widescreen.
IMHO ....this looks the best video to date,you can tell when playing it,it does break up as much as the other one.

Audio ....just wow,for a cam its one of the best cam audio i've heard ....hell i could almost call it line.
No remastering needed...only thing done was resync it as my old synced audio didn't fit right.
Check sample for Q

SCREENIES:

image
image
image
image
image
image

Related Torrents

torrent name size files age seed leech

Sharing Widget


Download torrent
1.37 GB
seeders:0
leechers:0
The Muppets 2011 CAM READNFO XViD v2 - U.S.M

Trackers

tracker name Status checked seeders leechers downloads
udp://tracker.publicbt.com:80/announce
outdated 05 Dec 2011 - - -
http://tracker.openbittorrent.com/announce
outdated 05 Dec 2011 - - -
udp://tracker.openbittorrent.com:80/announce
outdated 05 Dec 2011 - - -
http://tracker.publicbt.com/announce
deleted 05 Dec 2011 - - -
ĀµTorrent compatible trackers list

Locations

name
ThePirateBay
Limetorrents
Torrent hash: 5f2c7cb30f1a3ac0c1867dd462f2bdd2b83a4b5e

All Comments

audio
0/10
video
0/10
please, leave only comments related to that torrent
or sign-in

0
iTake132.92K • 06 Dec 2011, 08:58 Show comment
thanks for share

User Opinions

iTake132.92K
Report a bug