The Man From Nowhere 2010 BRRip XviD AC3-BAUM

seeders: 18
leechers: 1
updated:
Added in Movies
Torrent verified. Downloaded 321 times.

Summary:

A quiet pawnshop keeper with a violent past takes on a drug- and organ trafficking ring in hope of saving the child who is his only friend.

Written by Fereroooo63.33K
Available in versions: 1080p720pHDRiPDVDRipx265MPEG-4
The Man From Nowhere 2010 BRRip XviD AC3-BAUM (Size: 1.54 GB)
  Torrent downloaded from Demonoid.me.txt 46 bytes
  The.Man.From.Nowhere.2010.KOR.HDRip.XviD.AC3-BAUM.srt 96.81 KB
  The.Man.From.Nowhere.2010.KOR.HDRip.XviD.AC3-BAUM.avi 1.54 GB

Description

Title: The Man From Nowhere (2010)
Year: 2010

Film Genre: Action | Crime | Thriller
Subtitles: English (.srt)
Director: Lee Jeong-beom
Cast: Won Bin, Kim Sae-ron, Kim Tae-hoon, Kim Hee-won, Kim Seong-oh, Lee Jong-pil

http://www.imdb.com/title/tt1527788/


General
General
Complete name : The.Man.From.Nowhere.2010.KOR.HDRip.XviD.AC3-BAUM.avi
Format : AVI
Format/Info : Audio Video Interleave
File size : 1.54 GiB
Duration : 1h 59mn
Overall bit rate : 1 849 Kbps
Writing application : AVI-Mux GUI 1.17.8.3, Feb 16 201019:42:50
Writing library : VirtualDub build 32706/release

Video #0
ID : 0
Format : MPEG-4 Visual
Format profile : Advanced Simple@L5
Format settings, BVOP : Yes
Format settings, QPel : No
Format settings, GMC : No warppoints
Format settings, Matrix : Default (H.263)
Codec ID : XVID
Codec ID/Hint : XviD
Duration : 1h 59mn
Bit rate : 1 648 Kbps
Width : 720 pixels
Height : 304 pixels
Display aspect ratio : 2.35:1
Frame rate : 23.976 fps
Color space : YUV
Chroma subsampling : 4:2:0
Bit depth : 8 bits
Scan type : Progressive
Bits/(Pixel*Frame) : 0.314
Stream size : 1.37 GiB (89%)
Writing library : XviD 1.2.1 (UTC 2008-12-04)

Audio #1
ID : 1
Format : AC-3
Format/Info : Audio Coding 3
Mode extension : CM (complete main)
Codec ID : 2000
Duration : 1h 59mn
Bit rate mode : Constant
Bit rate : 192 Kbps
Channel(s) : 2 channels
Channel positions : Front: L R
Sampling rate : 48.0 KHz
Bit depth : 16 bits
Video delay : 6ms
Stream size : 164 MiB (10%)
Alignment : Split accross interleaves
Interleave, duration : 42 ms (1.00 video frame)
Interleave, preload duration : 500 ms

Related Torrents

torrent name size files age seed leech

Sharing Widget


Download torrent
1.54 GB
seeders:15
leechers:2
The Man From Nowhere 2010 BRRip XviD AC3-BAUM



To share this torrent use the code below and insert it into comments, status messages, forum posts or your signature.

Torrent: The Man From Nowhere 2010 BRRip XviD AC3-BAUM

Trackers

tracker name
udp://tracker.torrentbox.com:2710/announce
http://nemesis.1337x.org/announce
udp://tracker.openbittorrent.com:80/announce
udp://tracker.publicbt.com:80/announce
udp://glotorrents.pw:6969/announce
http://inferno.demonoid.me:3412/announce
udp://tracker.coppersurfer.tk:6969/announce
udp://tracker.istole.it:80/announce
http://www.torrent-downloads.to:2710/announce
http://www.sumotracker.com/announce
µTorrent compatible trackers list

Locations

name
ThePirateBay
Limetorrents
Limetorrents
ExtraTorrent
Torrent hash: 5df269a56939d1e8fffd0d4661224b1127d4dc26

Top Comments

3
MuayThai_Ozzy5890
audio: 10video: 10
Great movie !! really worth the watch !!
Here is the English Sub
http://www.opensubtitles.org/en/subtitles/4149919/ajeossi-en

All Comments

audio
9/10
video
9/10
please, leave only comments related to that torrent
Sign In

audio: 1video: 9
very bad english audio only
audio: 8video: 8
thanks
it's korean laungage !

Last edited by Ramones, 9 months ago

ENGLISH DUB SO SAD
audio: 8video: 7
Good quality, and the movie is awesome.
great movie... subs alittle outta wack but overall GREAT.. MUST DOWNLOAD GUYS
great movie... subs alittle outta wack but overall GREAT.. MUST DOWNLOAD GUYS
audio: 10video: 10
Amazing Film, Really good copy.
Show More All

User Opinions

Marteau2304, mdls3372193, bobbo681477, steffl872, gnaahh533, just chalk290, garompa247, ripvision246, cizkin183, 0range59 ... And 121 more
antihate1080, abdcho09161, triggerm888, muynek40
Report a bug