The Japanese Wife Next Door DVDRip

seeders: 13
leechers: 3
updated:
Added in Movies > Asian
Torrent verified. Downloaded 1,916 times.

Summary:

Pen pals decide to get married and carry-on a long-term relationship.

Written by sookie10044.86K
Available in versions: DVDRip
The Japanese Wife Next Door DVDRip (Size: 912.99 MB)
  TheJapaneseWifeNextDoor.avi 912.99 MB

Description

The Japanese Wife Next Door DVDRip








IMDB
Inran naru ichizoku: Dai-ni-shô - zetsurin no hate ni (2004) - IMDb

Reiko Yamaguchi
Naohiro Hirakawa
Kikujiro Honda
Akane YazakiQuote:Format : AVI
Format/Info : Audio Video Interleave
File size : 913 MiB

Video
ID : 0
Format : MPEG-4 Visual
Format profile : Simple@L1
Format settings, BVOP : No
Format settings, QPel : No
Format settings, GMC : No warppoints
Format settings, Matrix : Default (H.263)
Codec ID : DIVX
Codec ID/Info : Project Mayo
Codec ID/Hint : DivX 4
Duration : 1h 0mn
Bit rate : 1 975 Kbps
Width : 720 pixels
Height : 480 pixels
Display aspect ratio : 4:3
Frame rate : 29.970 fps
Standard : NTSC
Color space : YUV
Chroma subsampling : 4:2:0
Bit depth : 8 bits
Scan type : Progressive
Bits/(Pixel*Frame) : 0.191
Stream size : 852 MiB (93%)
Writing library : Lavc52.66.0

Audio
ID : 1
Format : MPEG Audio
Format version : Version 1
Format profile : Layer 3
Codec ID : 55
Codec ID/Hint : MP3
Duration : 1h 0mn
Bit rate mode : Constant
Bit rate : 128 Kbps
Channel(s) : 2 channels
Sampling rate : 44.1 KHz
Stream size : 55.2 MiB (6%)
Alignment : Aligned on interleaves
Interleave, duration : 26 ms (0.78 video frame)Screen Shots Direct LinkCode: http://www.pix2links.com/images/23776055999346614699.jpg http://www.pix2links.com/images/54444029372931865794.jpg http://www.pix2links.com/images/20054513981128144754.jpg http://www.pix2links.com/images/04626445849315554966.jpg http://www.pix2links.com/images/19255353188375408170.jpg
/>

If you Like My PostClick HereTo add Review
Thanks Alot

Click HereTo See My All Uplaoded Torrents

Related Torrents

torrent name size files age seed leech

Sharing Widget


Download torrent
912.99 MB
seeders:11
leechers:3
The Japanese Wife Next Door DVDRip



To share this torrent use the code below and insert it into comments, status messages, forum posts or your signature.

Torrent: The Japanese Wife Next Door DVDRip

Trackers

tracker name
udp://tracker.torrentbox.com:2710/announce
udp://tracker.istole.it:80/announce
udp://tracker.publicbt.com:80/announce
udp://9.rarbg.com:2710/announce
udp://tracker.openbittorrent.com:80/announce
udp://tracker.coppersurfer.tk:6969/announce
udp://glotorrents.pw:6969/announce
udp://tracker.1337x.org:80/announce
udp://tracker.novalayer.org:6969/announce
udp://tracker.opentrackr.org:1337/announce
µTorrent compatible trackers list

Locations

name
ExtraTorrent
Torrent hash: 48630c8e5fc796b0c9b667df8da7df79eddc0fbb

Top Comments

2
Siban2513
why would you think this when the torrent is titled, “The Japanese Wife Next Door”?

All Comments

audio
7/10
video
7/10
please, leave only comments related to that torrent
Sign In

audio: 8video: 8
thanks uploader :)
audio: 8video: 8
Torrent is good, Movie is bad
audio: 10video: 10
NIce funny Movie.Best Quality available.Those complaining should read description before downloading.Thanks
Going to download second part too
i downloaded this with the presumption that it's "the japanese wife" starring RAHUL BOSE, the BENGALI MOVIE
BUT IT'S NOT. ITS A PORN MOVIE. MIND IT.
VIDEO OTHERWISE IS 5/10

Last edited by BULLS2013, 2 years and 3 months ago

why would you think this when the torrent is titled, “The Japanese Wife Next Door”?

audio: 8video: 8
klassi . sorry, keyboard broke. thanks.
audio: 8video: 6
Censored version!
All legit Japanese erotic movies ARE censored!

Show More All

User Opinions

Djamel72030.71K, Fireman58444525, ramacole3905, aceg153497, SAMBHRANT1245, ronald.washington900, vivekanand005588, vherrr446, CrasHdeBurN258, sarvadaa126 ... And 81 more
mengualp1041, raperbamse437, costina1404391, stormerz291, hitmanshowgun278, jikoraj247, ssuryar198, hamzahman195, kashmeri56, nomos11715 ... And 11 more
Report a bug Open chat