The Island 2005 BRRIP 480p Hindi-740MB.by Deadman

seeders: 0
leechers: 0
updated:
Added in Movies
Torrent verified. Downloaded 10 times.

  • add The Island to bookmarks
  • Release date: 11 July 2005
  • Writers: Caspian Tredwell-Owen (screenplay), Alex Kurtzman (screenplay), Roberto Orci (screenplay), Caspian Tredwell-Owen (story)
  • Director: Michael Bay
  • Language: Hindi
  • Subtitles: Hindi
Summary:

A man goes on the run after he discovers that he is actually a "harvestable being", and is being kept as a source of replacement parts, along with others, in a Utopian facility.

Written by 5fingerdis65.67K
Available in versions: 1080p720pBlu-RayHDRiPDVDRipx265
The Island 2005 BRRIP 480p Hindi-740MB.by Deadman (Size: 752.45 MB)
  Part 1.mp4 386.58 MB
  Part 2.mp4 317.24 MB
  Part 3.mp4 37.13 MB
  sample.mp4 8.51 MB
  cb6p4h7l copy.jpg 192.58 KB
  Screenshot

Description

PLEASE DOWNLOAD THE SAMPLE BEFORE YOU DOWNLOAD TORRENT
"SAMPLE LINK"
CHECK MY OTHER UPLOADS:-
"PROFILE LINK"The Island 2005 BRRIP 480p Hindi-740MB.by DeadmanQuote:Format : MPEG-4
Format profile : Base Media / Version 2
Codec ID : mp42
File size : 387 MiB
Duration : 1h 1mn
Overall bit rate : 876 Kbps
Encoded date : UTC 2011-03-23 19:38:34
Tagged date : UTC 2011-03-23 19:58:03

ID : 1
Format : AVC
Format/Info : Advanced Video Codec
Format profile : Main@L3.0
Format settings, CABAC : Yes
Format settings, ReFrames : 4 frames
Codec ID : avc1
Codec ID/Info : Advanced Video Coding
Duration : 1h 1mn
Bit rate mode : Variable
Bit rate : 800 Kbps
Width : 720 pixels
Height : 384 pixels
Display aspect ratio : 1.875
Frame rate mode : Variable
Frame rate : 29.955 fps
Minimum frame rate : 2.997 fps
Maximum frame rate : 29.970 fps
Color space : YUV
Chroma subsampling : 4:2:0
Bit depth : 8 bits
Scan type : Progressive
Bits/(Pixel*Frame) : 0.097
Stream size : 354 MiB (92%)
Writing library : x264 core 112

Audio
ID : 2
Format : MPEG Audio
Format version : Version 1
Format profile : Layer 3
Mode : Joint stereo
Codec ID : 69
Duration : 1h 1mn
Bit rate mode : Variable
Bit rate : 70.1 Kbps
Maximum bit rate : 76.6 Kbps
Channel(s) : 2 channels
Sampling rate : 48.0 KHz
Compression mode : Lossy
Stream size : 30.9 MiB (8%)
Encoded date : UTC 2011-03-23 19:38:34
Tagged date : UTC 2011-03-23 19:58:03

part 2

Format : MPEG-4
Format profile : Base Media / Version 2
Codec ID : mp42
File size : 317 MiB
Duration : 1h 1mn
Overall bit rate : 722 Kbps

part 3

Format : MPEG-4
Format profile : Base Media / Version 2
Codec ID : mp42
File size : 37.1 MiB
Duration : 5mn 53s
Overall bit rate : 880 KbpsExtreme Seeding is started


Source:- From Miss Khan[Team-Exd] 1.57GB

*first on net 480p in Small size in hindi. if any one find this quality in small size. then i will stop encoding. Go find it if u can. You Can Get Only on Exdesi*

Sharing Widget


Download torrent
752.45 MB
seeders:0
leechers:0
The Island 2005 BRRIP 480p Hindi-740MB.by Deadman



To share this torrent use the code below and insert it into comments, status messages, forum posts or your signature.

Torrent: The Island 2005 BRRIP 480p Hindi-740MB.by Deadman

Trackers

tracker name
udp://tracker.publicbt.com:80/announce
udp://tracker.openbittorrent.com:80/announce
http://tracker.openbittorrent.com/announce
http://tracker.publicbt.com/announce
http://exdesi.com:6969/0002af7953e8e13ef1700d15bdb7ad0f/announce
ĀµTorrent compatible trackers list

Locations

name
ExtraTorrent
1337x
KickassTorrents
Torrent hash: fb81a78d78c45e15bd5c5def47b11582c2cb909e

All Comments

audio
9/10
video
9/10
please, leave only comments related to that torrent
Sign In

audio: 8video: 8
good copy..
audio: 9video: 10
THANKS, lolLIKE ALWAYS GOOD JOB 9/10
audio: 10video: 10

User Opinions

Report a bug