The Help 2011 Cam x264 Feel-Free

seeders: 0
leechers: 0
Added on Aug 15, 2011 by feel-free20.27K in Movies
Torrent verified. Downloaded 0 times.

  • add The Help to bookmarks
  • Release date: 09 August 2011
  • Writers: Tate Taylor (screenplay), Kathryn Stockett (novel)
  • Language: English
Summary:
An aspiring author during the civil rights movement of the 1960s decides to write a book detailing the African-American maids' point of view on the white families for which they work, and the hardships they go through on a daily basis.
Written by 5fingerdis61.04K
report summary
Available in versions: 1080p720pBDRipHDRiPDVDRipx264
The Help 2011 Cam x264 Feel-Free (Size: 1.43 GB)
  claudiu406.jpg 90.73 KB
  The.Help.2011.Cam.x264 2.79 KB
  The.Help.2011.Cam.x264.Feel-Free.mp4 1.43 GB
  Torrent downloaded from extratorrent.com.txt 171 bytes
  vlcsnap-00001.png 275.96 KB
  vlcsnap-00002.png 258.38 KB
  vlcsnap-00003.png 275.63 KB
  vlcsnap-00004.png 354.85 KB
  vlcsnap-00005.png 276.64 KB
  vlcsnap-00006.png 348.19 KB

Description

image


Genre:Drama
Language:English
IMDb:http://www.imdb.com/title/tt1454029/
Source:ERDNA/IMAGINE Thanks!

Format : MPEG-4
Format profile : Base Media
Codec ID : isom
File size : 1.43 GiB
Duration : 2h 18mn
Overall bit rate : 1 472 Kbps

Video
ID : 1
Format : AVC
Format/Info : Advanced Video Codec
Format profile : High@L4.1
Format settings, CABAC : Yes
Format settings, ReFrames : 3 frames
Codec ID : avc1
Codec ID/Info : Advanced Video Coding
Duration : 2h 18mn
Bit rate mode : Variable
Bit rate : 1 241 Kbps
Maximum bit rate : 6 512 Kbps
Width : 640 pixels
Height : 336 pixels
Display aspect ratio : 1.905
Frame rate mode : Constant
Frame rate : 29.970 fps
Color space : YUV
Chroma subsampling : 4:2:0
Bit depth : 8 bits
Scan type : Progressive
Bits/(Pixel*Frame) : 0.193
Stream size : 1.20 GiB (85%)
Writing library : x264

Audio
ID : 2
Format : AAC
Format/Info : Advanced Audio Codec
Format version : Version 4
Format profile : LC
Format settings, SBR : No
Codec ID : 40
Duration : 2h 18mn
Bit rate mode : Variable
Bit rate : 224 Kbps
Maximum bit rate : 253 Kbps
Channel(s) : 2 channels
Channel positions : Front: L R
Sampling rate : 48.0 KHz
Stream size : 222 MiB (15%)


Plot:
A look at what happens when a southern town's unspoken code of rules and behavior is shattered by three courageous women who strike up an unlikely friendship

TRAILER:
[embed=youtube]http://www.youtube.com/watch?v=J_ajv_6pUnI&feature=player_embedded[/embed]

image
image
image
image
image
image

Greets:

INK,CRYS,IMAGINE,LKRG,FXG,3Li,FLAWL3SS,TA,iLLUSiON,ViSiON,DTRG SAFCuk009,LU,TheFalcon007,MYSTiC,PrisM,Noir,WBZ,LAP,Rx,Kingdom,SAFCuk009+Fabreezy,HDLiTE,TWiZTED,ExtraTorrentRG.ELEKTRI4KA,MAGNAT,CM8
And to all the other p2p grps past and present




Thanks to all who promotes release Feel-Free !!!

Sharing Widget


Download torrent
1.43 GB
seeders:0
leechers:0
The Help 2011 Cam x264 Feel-Free

Trackers

tracker name Status checked seeders leechers downloads
http://pow7.com/announce
outdated 28 Mar 2015 - - -
http://10.rarbg.com/announce
private 09 May 2012 - - -
http://tracker.istole.it/announce
outdated 26 Oct 2011 - - -
udp://tracker.istole.it:80/announce
outdated 14 Oct 2011 - - -
udp://tracker.openbittorrent.com:80/announce
outdated 14 Oct 2011 - - -
http://tracker.openbittorrent.com/announce
outdated 14 Oct 2011 - - -
udp://tracker.publicbt.com:80/announce
outdated 14 Oct 2011 - - -
http://tracker.publicbt.com/announce
deleted 11 Mar 2013 - - -
http://9.rarbg.com:2710/announce
private 15 Aug 2011 - - -
http://tracker.novalayer.org:6969/announce
pending 14 Oct 2011 2444 544 8755
ĀµTorrent compatible trackers list

Locations

name
KickassTorrents
ThePirateBay
ExtraTorrent
Limetorrents
BTjunkie
Torrent hash: 943E5F52C90768826C429CBFE16291C41CBB544A

Top Comments

3
anonymous • 01 Sep 2011, 21:30
watchable.. thanks. checkout screen shots at http://allscreenshots.blog.com/2011/08/31/the-help-2011-cam-x264-feel-freescreen-shots-only/

All Comments

audio
7/10
video
7/10
please, leave only comments related to that torrent
or sign-in
0
BleachBabe82 • 16 January 2012, 04:12
torrent downloaded
Show comment
audio: 8video: 9
good copy, great movie. thanks.biggrin
0
moviez2go223 • 19 November 2011, 22:38
torrent downloaded
Show comment
audio: 7video: 8
Love this movie!
0
suds1983443 • 15 November 2011, 01:24
torrent downloaded
Show comment
audio: 6video: 7
ok copy
0
kymluv53 • 14 November 2011, 23:17
torrent downloaded
Show comment
audio: 10video: 8
very good copy.....thanks loader
0
Angelic-TR855 • 13 November 2011, 18:19
torrent downloaded
Show comment
audio: 9video: 9
-1
MrMistoffles71 • 12 November 2011, 01:28
torrent downloaded
Show comment
poor
0
d1phaze317 • 06 November 2011, 01:32
torrent downloaded
Show comment
audio: 8video: 7
0
noney2k90 • 04 November 2011, 19:00
torrent downloaded
Show comment
perfect thanks very much
0
TXCachete235 • 04 November 2011, 02:35
torrent downloaded
Show comment
audio: 7video: 7
0
eureeeka4 • 04 November 2011, 01:38
torrent downloaded
Show comment
Video-taped in theater but good to watch.
Show More All

User Opinions

Fireman58444511, sommelier1546, carolinacervi441, tesh174, mrsblackbettyboo161, sweet pea118, TXBadman86, JTBizzleATL84, goldoelleon48, mred39 ... And 282 more
QRS.B872, minatsadh474, jiggee348, shuck254, nycgraphix90, MrMistoffles71, foundme68, sykes_3328, zooka023, scruffy2902 ... And 23 more
Report a bug