The Hangover Part II 2011 DVDRip XviD-LTW-[BTARENA].avi

seeders: 0
leechers: 1
updated:
Added by AiTB14.91K in Movies
Downloaded 10 times.

Summary:

Two years after the bachelor party in Las Vegas, Phil, Stu, Alan, and Doug jet to Thailand for Stu's wedding. Stu's plan for a subdued pre-wedding brunch, however, goes seriously awry.

Written by thePiratePimp69.05K
The Hangover Part II 2011 DVDRip XviD-LTW-[BTARENA].avi (Size: 1.47 GB)
  The.Hangover.Part.II.2011.DVDRip.XviD-LTW.avi 1.47 GB

Description

image

info, sample..


The Hangover Part II (2011)
Genre: Comedy
Ratings: 6.9/10 from 59,501 users


Two years after the bachelor party in Las Vegas, Phil, Stu, Alan, and Doug jet to Thailand for Stu's wedding. Stu's plan for a subdued pre-wedding brunch, however, goes seriously awry.


Video
ID : 0
Format : MPEG-4 Visual
Format profile : Advanced Simple@L5
Format settings, BVOP : 1
Format settings, QPel : No
Format settings, GMC : No warppoints
Format settings, Matrix : Custom
Codec ID : XVID
Codec ID/Hint : XviD
Duration : 1h 37mn
Bit rate : 1 950 Kbps
Width : 672 pixels
Height : 288 pixels
Display aspect ratio : 2.35:1
Frame rate : 29.970 fps
Color space : YUV
Chroma subsampling : 4:2:0
Bit depth : 8 bits
Scan type : Progressive
Compression mode : Lossy
Bits/(Pixel*Frame) : 0.336
Stream size : 1.33 GiB (91%)
Writing library : XviD 1.2.1 (UTC 2008-12-04)

Audio
ID : 1
Format : AC-3
Format/Info : Audio Coding 3
Mode extension : CM (complete main)
Codec ID : 2000
Duration : 1h 37mn
Bit rate mode : Constant
Bit rate : 192 Kbps
Channel(s) : 2 channels
Channel positions : Front: L R
Sampling rate : 48.0 KHz
Bit depth : 16 bits
Compression mode : Lossy
Stream size : 134 MiB (9%)
Alignment : Split accross interleaves
Interleave, duration : 96 ms (2.88 video frames)
Interleave, preload duration : 96 ms
Language : English

image

image

Sharing Widget


Download torrent
1.47 GB
seeders:2
leechers:1
The Hangover Part II 2011 DVDRip XviD-LTW-[BTARENA].avi



To share this torrent use the code below and insert it into comments, status messages, forum posts or your signature.

Torrent: The Hangover Part II 2011 DVDRip XviD-LTW-[BTARENA].avi

Trackers

tracker name
http://pow7.com/announce
udp://tracker.openbittorrent.com:80/announce
udp://tracker.istole.it:80/announce
udp://tracker.publicbt.com:80/announce
http://tracker.openbittorrent.com/announce
http://tracker.istole.it/announce
http://exodus.desync.com:6969/announce
http://fr33dom.h33t.com:3310/announce
http://tracker.publicbt.com/announce
µTorrent compatible trackers list

Locations

name
KickassTorrents
ThePirateBay
ExtraTorrent
Limetorrents
Torrent hash: A054B5FE58E0CF36F9C7D52D6382719EFCDA2A0A

All Comments

audio
9/10
video
9/10
please, leave only comments related to that torrent
Sign In

audio: 9video: 9
great print
audio: 10video: 9
Thanks
BURN: 10
is this really dvdrip?

User Opinions

Shuvo67837.54K, SaveEarth25.88K, OgreV6909, vejron721167, LisaKikinASS560, bineski464, thorn420ca273, MAX2nd238, sjl9735103, serkanxl13
Report a bug