The Fifth Element*1997*[BluRay][1080p][ENG, POL, GER]

seeders: 0
leechers: 0
updated: 2 days ago
Added on Feb 17, 2010 by albedo038882 in Movies > Highres Movies
Torrent verified by 1eyedwillie105.22K, 3 years and 4 months ago. Downloaded 10 times.

Summary:
In the colorful future, a cab driver unwittingly becomes the central figure in the search for a legendary cosmic weapon to keep Evil and Mr Zorg at bay.
Written by thePiratePimp62.65K
report summary
The Fifth Element*1997*[BluRay][1080p][ENG, POL, GER] (Size: 7.77 GB)
  The_Fifth_Element_1080p.BRRiP_x264_AC3.mkv 7.77 GB

Description

The Fifth Element*1997*[BluRay][1080p][ENG, POL, GER]


General information:

Country:

Release Date: France 7 May 1997 (Cannes Film Festival)

Genre: Action, Adventure, Romance, Sci-Fi, Thriller

Director: Luc Besson

Screenplay: Luc Besson

Original Music by Eric Serra

Cinematography by Thierry Arbogast

Duration: 2h 06 mn

Language: English, Polish, German

Subtitles: Polish

Rating: 8.03/10 - 14392 votes

image


image


Cast:

Bruce Willis ...  Korben Dallas

Gary Oldman ...  Jean-Baptiste Emanuel Zorg

Ian Holm ...  Father Vito Cornelius

Milla Jovovich ...  Leeloo

Chris Tucker ...  Ruby Rhod

Luke Perry ...  Billy

Brion James ...  General Munro

Tommy 'Tiny' Lister ...  President Lindberg (as Tommy 'Tiny' Lister Jr.)

Lee Evans ...  Fog

Charlie Creed-Miles ...  David (as Charlie Creed Miles)

Tricky ...  Right Arm

John Neville ...  General Staedert

John Bluthal ...  Professor Pacoli

Mathieu Kassovitz ...  Mugger

Christopher Fairbank ...  Mactilburgh


Plot:

In the colorful future, a cab driver unwittingly becomes the central figure in the search for a legendary cosmic weapon to keep Evil and Mr Zorg at bay.


Specifications:

General

Format                           : Matroska

Duration                         : 2h 6mn

Overall bit rate                 : 8 812 Kbps


Video

Format                           : AVC

Format/Info                      : Advanced Video Codec

Format settings, CABAC           : Yes

Format settings, ReFrames        : 5 frames

Codec ID                         : V_MPEG4/ISO/AVC

Bit rate                         : 7 293 Kbps

Nominal bit rate                 : 7 601 Kbps

Width                            : 1 920 pixels

Height                           : 816 pixels

Display aspect ratio             : 2.35:1

Frame rate                       : 23.976 fps


Audio 1

Format                           : AC-3

Format/Info                      : Audio Coding 3

Codec ID                         : A_AC3

Bit rate mode                    : Constant

Bit rate                         : 448 Kbps

Channel(s)                       : 6 channels

Channel positions                : Front: L C R, Surround: L R, LFE

Sampling rate                    : 48.0 KHz

Stream size                      : 405 MiB (5%)

Language                         : Polish


Audio 2

Format                           : AC-3

Format/Info                      : Audio Coding 3

Codec ID                         : A_AC3

Bit rate mode                    : Constant

Bit rate                         : 448 Kbps

Channel(s)                       : 6 channels

Channel positions                : Front: L C R, Surround: L R, LFE

Sampling rate                    : 48.0 KHz

Stream size                      : 405 MiB (5%)

Language                         : German


Audio 3

Format                           : AC-3

Format/Info                      : Audio Coding 3

Codec ID                         : A_AC3

Bit rate mode                    : Constant

Bit rate                         : 448 Kbps

Channel(s)                       : 6 channels

Channel positions                : Front: L C R, Surround: L R, LFE

Sampling rate                    : 48.0 KHz

Stream size                      : 405 MiB (5%)

Language                         : English


Text

Format                           : UTF-8

Codec ID                         : S_TEXT/UTF8

Codec ID/Info                    : UTF-8 Plain Text

Language                         : Polish

 

Related Torrents

torrent name size files age seed leech

Sharing Widget


Download torrent
7.77 GB
seeders:1
leechers:1
The Fifth Element*1997*[BluRay][1080p][ENG, POL, GER]



To share this torrent use the code below and insert it into comments, status messages, forum posts or your signature.

Torrent: The Fifth Element*1997*[BluRay][1080p][ENG, POL, GER]

Trackers

tracker name Status
udp://open.demonii.com:1337/announce
active
http://genesis.1337x.org:1337/announce
active
udp://tracker.openbittorrent.com:80/announce
active
udp://tracker.publicbt.com:80/announce
active
udp://tracker.istole.it:80/announce
active
udp://tracker.ccc.de:80/announce
deleted
http://9.rarbg.com:2710/announce
private
http://www.torrent-downloads.to:5869/announce
error
µTorrent compatible trackers list

Locations

name
KickassTorrents
ThePirateBay
TorrentReactor
SumoTorrent
SumoTorrent
SumoTorrent
SumoTorrent
SumoTorrent
SumoTorrent
SumoTorrent
SumoTorrent
SumoTorrent
SumoTorrent
SumoTorrent
SumoTorrent
SumoTorrent
SumoTorrent
SumoTorrent
SumoTorrent
SumoTorrent
SumoTorrent
SumoTorrent
SumoTorrent
SumoTorrent
SumoTorrent
SumoTorrent
SumoTorrent
SumoTorrent
SumoTorrent
SumoTorrent
SumoTorrent
SumoTorrent
SumoTorrent
SumoTorrent
SumoTorrent
SumoTorrent
Torrent hash: 6028c7452761e87a87e032c9663f86cf532969b7

All Comments

audio
10/10
video
10/10
please, leave only comments related to that torrent
or sign-in

0
dantelectro992 • 26 Aug 2012, 11:26
torrent downloaded
Show comment
I have the Codres rip and it's roughly the same quality at 4.4 GB.
0
gunnmlo99252 • 17 Jul 2012, 11:10
torrent downloaded
Show comment
audio: 10video: 10
Great, thanks!
0
Gotchinezcki8588 • 21 Oct 2010, 15:53
torrent downloaded
Show comment
audio: 10video: 10
Great Quality
1
vjskywalker95 • 21 Oct 2010, 07:35
torrent downloaded
Show comment
audio: 10video: 10
Perfect rip! Default language is Polish and you have to select English in VLC. Subtitles are all in Polish but that is easily solved when English subtitles are available in Subscene.com. One of favorite movie and I believe this is the best copy there is! This is a keeper for me!
-1
anonymous • 23 Apr 2010, 06:27 Show comment
Not in English, but good quality video and audio.
0
gunnmlo99252 • 17 Jul 2012, 11:09
torrent downloaded
Show comment
Yes there is. It's just not the default track

0
xeniasta106 • 27 Jan 2011, 16:22
torrent downloaded
Show comment
audio: 10video: 10

User Opinions

FILIPD3K011.18K, Gotchinezcki8588, exxelancce3352, prprettypls2058, devil_dog1220, nelabu563, gunnmlo99252, xeniasta106, vjskywalker95, daniel_bozo_5 ... And 3 more
dantelectro992
Report a bug