The Devils Rejects 2005 DVDRip Xvid BigPerm LKRG

seeders: 0
leechers: 0
updated:
Added in Movies
Torrent verified. Downloaded 10 times.

Summary:

The murderous, backwoods Firefly family takes to the road to escape a vengeful police force which isn't afraid of being as ruthless as their target.

Written by Hand_of_Doom519.73K
Available in versions: 1080p720pBDRipDVDRipx265Screener
The Devils Rejects 2005 DVDRip Xvid BigPerm LKRG (Size: 1.13 GB)
  TDRLKRG.avi 1.13 GB
  Downloaded from ExtraTorrent.com.txt 212 bytes

Description






Plot:

In Ruggsville, Texas, the police under the command of Sheriff John Quincy Wydell attack the house of the sadistic serial killers Firefly family (a.k.a. The Devil\'s Reject) and they arrest mother Firefly, but Otis B. Driftwood and Baby Firefly escape from the siege. Tiny is wandering nearby the house and also escapes. Otis and Baby call their patriarch, the mad clown Captain Spaulding and they schedule to reunite at an isolated motel in the desert. When Otis and Baby arrive, they kidnap two families of singers, using sadism and violence against the harmless persons. Meanwhile, Sheriff Wydell promises to capture and kill the runaways, seeking revenge for the death of his brother, the Deputy George Wydell.

Cast
Cast:

Sid Haig.......................Captain Spaulding
Bill Moseley...................Otis
Sheri Moon Zombie..............Baby
William Forsythe...............Sheriff Wydell
Ken Foree......................Charlie Altamont
Matthew McGrory................Tiny
Leslie Easterbrook.............Mother Firefly
Geoffrey Lewis.................Roy Sullivan
Priscilla Barnes...............Gloria Sullivan
Dave Sheridan..................Officer Ray Dobson
Kate Norby.....................Wendy Banjo
Lew Temple.....................Adam Banjo
Danny Trejo....................Rondo
Dallas Page....................Billy Ray Snapper

General Info
General:

Complete name : The Devils Rejects 2005 DVDRip Xvid BigPerm LKRG\\TDRLKRG.avi
Format : AVI
Format/Info : Audio Video Interleave
Format profile : OpenDML
File size : 1.13 GiB
Duration : 1h 50mn
Overall bit rate : 1 463 Kbps

Video:

ID : 0
Format : MPEG-4 Visual
Format profile : Advanced Simple@L5
Format settings, BVOP : Yes
Format settings, QPel : No
Format settings, GMC : No warppoints
Format settings, Matrix : Default (H.263)
Codec ID : XVID
Codec ID/Hint : XviD
Duration : 1h 50mn
Bit rate : 1 009 Kbps
Width : 700 pixels
Height : 392 pixels
Display aspect ratio : 16:9
Frame rate : 23.976 fps
Resolution : 8 bits
Colorimetry : 4:2:0
Scan type : Progressive
Bits/(Pixel*Frame) : 0.153
Stream size : 800 MiB (69%)
Writing library : XviD 1.2.1 (UTC 2008-12-04)

Audio
ID : 1
Format : AC-3
Format/Info : Audio Coding 3
Codec ID : 2000
Duration : 1h 50mn
Bit rate mode : Constant
Bit rate : 448 Kbps
Channel(s) : 6 channels
Channel positions : Front: L C R, Side: L R, LFE
Sampling rate : 48.0 KHz
Resolution : 16 bits
Video delay : 42ms
Stream size : 355 MiB (31%)
Alignment : Split accross interleaves
Language : English


Screens





Sharing Widget


Download torrent
1.13 GB
seeders:0
leechers:0
The Devils Rejects 2005 DVDRip Xvid BigPerm LKRG



To share this torrent use the code below and insert it into comments, status messages, forum posts or your signature.

Torrent: The Devils Rejects 2005 DVDRip Xvid BigPerm LKRG

Trackers

tracker name
udp://tracker.openbittorrent.com:80/announce
udp://tracker.publicbt.com:80/announce
http://photodiode.mine.nu/announce
http://10.rarbg.com/announce
http://tracker.openbittorrent.com/announce
http://tracker.torrentparty.com/announce
http://pow7.com/announce
http://exodus.1337x.org/announce
http://genesis.1337x.org:1337/announce
http://tracker.publicbt.com/announce
http://tracker.bitreactor.to:2710/announce
µTorrent compatible trackers list

Locations

name
ExtraTorrent
1337x
Limetorrents
Fenopy
Torrent hash: efb8c2f6999b46707f0d71897678413f99255973

All Comments

audio
9/10
video
9/10
please, leave only comments related to that torrent
Sign In

audio: 9video: 9
all good..thanx
audio: 10video: 10
thanks
audio: 9video: 9
nice quality great movie
audio: 10video: 10
Love the Great Video and Audio Perfect
audio: 10video: 10
very nice film and the audio and video quality is very good
audio: 10video: 10
Good Quality Great Movie Thanks for the UL
audio: 9video: 9
Excellent A/V Many Thanks
audio: 10video: 10
Great movie from an amazing artist!
audio: 10video: 10
Great Copy!
Thx 4 Sharing
Show More All

User Opinions

Report a bug