The.Devils.in.the.Details.2013 BRRip XViD juggs

seeders: 0
leechers: 0
updated:
Added by juggs709.53K in Movies
Torrent verified. Downloaded 10 times.

Summary:

After serving a brutal tour of duty, veteran soldier Thomas Conrad is looking forward to a peaceful life at home with his family. But a drug cartel's ruthless enforcer has other plans for him.

Written by Mr.Gooner464.84K
Available in versions: HDRiP
The.Devils.in.the.Details.2013 BRRip XViD juggs (Size: 710.92 MB)
  The.Devils.in.the.Details.2013 BRRip XViD juggs.avi 701.35 MB
  Torrent downloaded from extratorrent.com.txt 339 bytes
  sample.avi 9.58 MB

Description

http://www.shotpix.com/images/99214520211351517867.jpg

Source : LCHD

http://www.imdb.com/title/tt2137359/


Format : AVI
Format/Info : Audio Video Interleave
File size : 701 MiB
Duration : 1h 40mn
Overall bit rate : 978 Kbps
Writing library : VirtualDub build 32842/release

Video
ID : 0
Format : MPEG-4 Visual
Format profile : Advanced Simple@L5
Format settings, BVOP : 4
Format settings, QPel : No
Format settings, GMC : No warppoints
Format settings, Matrix : Default (H.263)
Muxing mode : Packed bitstream
Codec ID : XVID
Codec ID/Hint : XviD
Duration : 1h 40mn
Bit rate : 840 Kbps
Width : 640 pixels
Height : 256 pixels
Display aspect ratio : 2.500
Frame rate : 23.976 fps
Color space : YUV
Chroma subsampling : 4:2:0
Bit depth : 8 bits
Scan type : Progressive
Compression mode : Lossy
Bits/(Pixel*Frame) : 0.214
Stream size : 603 MiB (86%)
Writing library : XviD 64

Audio
ID : 1
Format : MPEG Audio
Format version : Version 1
Format profile : Layer 3
Codec ID : 55
Codec ID/Hint : MP3
Duration : 1h 40mn
Bit rate mode : Constant
Bit rate : 128 Kbps
Channel(s) : 2 channels
Sampling rate : 44.1 KHz
Compression mode : Lossy
Stream size : 91.8 MiB (13%)
Alignment : Split accross interleaves
Interleave, duration : 42 ms (1.00 video frame)
Interleave, preload duration : 500 ms
Writing library : LAME3.99r
Encoding settings : -m s -V 4 -q 3 -lowpass 17 -b 128


Plot
7 minutes from now in Nogales, Arizona. Thomas Conrad's life will forever change when he gets caught up in a Mexican cartels poetic game of drug mule chess.


http://www.shotpix.com/images/48516143988196178918.png
http://www.shotpix.com/images/19990076910067538041.png
http://www.shotpix.com/images/75312256020705817471.png
http://www.shotpix.com/images/00285840257594748871.png

Sharing Widget


Download torrent
710.92 MB
seeders:0
leechers:0
The.Devils.in.the.Details.2013 BRRip XViD juggs



To share this torrent use the code below and insert it into comments, status messages, forum posts or your signature.

Torrent: The.Devils.in.the.Details.2013 BRRip XViD juggs

Trackers

tracker name
udp://9.rarbg.com:2710/announce
udp://tracker.openbittorrent.com:80/announce
udp://tracker.publicbt.com:80/announce
udp://tracker.istole.it:80/announce
http://exodus.desync.com:6969/announce
http://tracker.coppersurfer.tk:6969/announce
udp://fr33dom.h33t.com:3310/announce
http://fr33dom.h33t.com:3310/announce
udp://fr33domtracker.h33t.com:3310/announce
udp://ipv4.tracker.harry.lu:80/announce
ĀµTorrent compatible trackers list

Locations

name
KickassTorrents
Torrent hash: 86DDE1EA8907B7ECEA736D90E0FDFC09ED7C6B2B

Top Comments

6
anonymous
audio: 9video: 9
LOL you people with Playstation drama. I watch this on my microwave without problems.
6
anonymous
All these issues with PS3 such, I play it on my Atari with out any issues, and my neighbor uses his Commadore 64 no problems there either. Oh and yes the movie is worth watching.
4
anonymous
yes it is
4
anonymous
Using all upper case is shouting!

All Comments

audio
8/10
video
8/10
please, leave only comments related to that torrent
Sign In

audio: 9video: 9
Great Copy Fast Download, Thanks Up-loader & Seeders! V9 A9
sound and quality good, acting and sequences piss poor, absolute crap movie. Storyline wrong doesn't make sense DON'T WASTE YOUR TIME
audio: 9video: 9
Good download, thanks for sharing.biggrin
audio: 9video: 9
thanks uploader
audio: 9video: 9
TY! Agree with boring.
audio: 8video: 9
good job...thanks
audio: 9video: 9
Boring movie.
Show More All

User Opinions

barchetta9404, Modearham3709, Mallyda13622, terrayusa1600, mess2d1331, nori6661090, kameln10527, cookie1476, chinsue424, Rage84337 ... And 310 more
hammyburger4807, coppieking4603, 333CyberWolf3560, champion0073472, Besharm3226, jasko1121405, HellSpawm442, jojocagallo77364, filipkawka195, aliuminati98 ... And 14 more
Report a bug