The Dark Knight Rises 2012 TS NEW XviD.Feel-Free

seeders: 0
leechers: 1
updated:
Added by feel-free20.32K in Movies
Torrent verified. Downloaded 10 times.

Summary:

A new menace emerges and the Dark Knight rises again to protect the city from a merciless terrorist with the help of anti-heroine Selina Kyle.

Written by 5fingerdis64.71K
The Dark Knight Rises 2012 TS NEW XviD.Feel-Free (Size: 1.31 GB)
  83bdbcf94d.jpg 119.6 KB
  The Dark Knight Rises 2012 TS NEW XviD.Feel-Free.avi 1.31 GB
  The Dark Knight Rises 2012 TS NEW XviD.Feel-Free.nfo 3.25 KB
  Torrent downloaded from extratorrent.com.txt 171 bytes
  vlcsnap-2012-08-01-06h30m37s37.png 261.6 KB
  vlcsnap-2012-08-01-06h30m51s184.png 85.8 KB
  vlcsnap-2012-08-01-06h31m14s162.png 291.98 KB
  vlcsnap-2012-08-01-06h31m23s5.png 267.18 KB
  vlcsnap-2012-08-01-06h32m11s215.png 91.09 KB
  vlcsnap-2012-08-01-06h32m17s30.png 179.09 KB

Description

image
image


Genre:Action | Adventure | Crime
Language:English
IMDb:http://www.imdb.com/title/tt1345836/
Source:26K Thanks
Encoder:Tony

Format : AVI
Format/Info : Audio Video Interleave
File size : 1.31 GiB
Duration : 2h 37mn
Overall bit rate : 1 191 Kbps

Video
ID : 0
Format : MPEG-4 Visual
Format profile : Advanced Simple@L5
Format settings, BVOP : 1
Format settings, QPel : No
Format settings, GMC : No warppoints
Format settings, Matrix : Default (H.263)
Codec ID : XVID
Codec ID/Hint : XviD
Duration : 2h 37mn
Bit rate : 1 019 Kbps
Width : 640 pixels
Height : 232 pixels
Display aspect ratio : 2.759
Frame rate : 29.970 fps
Color space : YUV
Chroma subsampling : 4:2:0
Bit depth : 8 bits
Scan type : Progressive
Compression mode : Lossy
Bits/(Pixel*Frame) : 0.229
Stream size : 1.12 GiB (86%)
Writing library : XviD 1.2.1 (UTC 2008-12-04)

Audio
ID : 1
Format : AC-3
Format/Info : Audio Coding 3
Mode extension : CM (complete main)
Codec ID : 2000
Duration : 2h 37mn
Bit rate mode : Constant
Bit rate : 160 Kbps
Channel(s) : 2 channels
Channel positions : Front: L R
Sampling rate : 48.0 KHz
Bit depth : 16 bits
Compression mode : Lossy
Stream size : 180 MiB (13%)
Alignment : Aligned on interleaves
Interleave, duration : 33 ms (1.00 video frame)
Interleave, preload duration : 512 ms



Plot:
Eight years on, a new terrorist leader, Bane, overwhelms Gotham's finest, and the Dark Knight resurfaces to protect a city that has branded him an enemy.

TRAILER:
[embed=youtube]http://www.youtube.com/watch?v=GokKUqLcvD8&feature=player_embedded[/embed]

image
image
image
image
image
image


Greets:
CRYS,INSPiRAL,IMAGINE,LKRG,ADTRG,FXG,3Li,FLAWL3SS,CrEwSaDe,TA,iLLUSiON,EMBER,HOPE,GooN,BBnRG,NOGRP,ETRG,BHRG,iLLUMiNATi,MiSTERE.ViSiON,DTRG SAFCuk009,LU,TheFalcon007,MYSTiC,PrisM,Noir,WBZ,LAP,Rx,Kingdom,SAFCuk009+Fabreezy,HDLiTE,TWiZTED,ETRG.ELEKTRI4KA,MAGNAT,CM8
And to all the other p2p grps past and present

Make sure its a real Feel-Free release @ http://extratorrent.com
Thanks to all who promotes release Feel-Free !!!

Related Torrents

torrent name size files age seed leech

Sharing Widget


Download torrent
1.31 GB
seeders:0
leechers:1
The Dark Knight Rises 2012 TS NEW XviD.Feel-Free



To share this torrent use the code below and insert it into comments, status messages, forum posts or your signature.

Torrent: The Dark Knight Rises 2012 TS NEW XviD.Feel-Free

Trackers

tracker name
udp://tracker.openbittorrent.com:80/announce
udp://tracker.publicbt.com:80/announce
http://pow7.com/announce
udp://tracker.istole.it:80/announce
udp://tracker.1337x.org:80/announce
http://exodus.desync.com:6969/announce
http://fr33dom.h33t.com:3310/announce
udp://fr33domtracker.h33t.com:3310/announce
http://tracker.novalayer.org:6969/announce
µTorrent compatible trackers list

Locations

name
KickassTorrents
Torrent hash: 3D3A24813A1024ECC52BF1738EF8FCC0639F2956

All Comments

audio
5/10
video
5/10
please, leave only comments related to that torrent
Sign In

Seriously what is this torrent still doing here? Who would even bother to settle for this when there's BluRay now? Move along!
audio: 5video: 5
ok bit dark and a little boring
audio: 10video: 10
great
Show More All

User Opinions

The_QuietMind5458, JackAtKat4763, M.ChaosTheory2067, sommelier1546, lovethesharing1083, jbrackett52551071, malcmag874, m-khalaf809, urmember30, olasquare15 ... And 29 more
DiscoFountain2522, langepoekoe1798, snoopguru833, VonGhoulish479, tripNatl456, simovee307, rock2875223, jcote258195, classy56188, jasonxin3 ... And 1 more
Report a bug