The Dark Knight Rises (2012) DVDRip XviD-MAXSPEED

seeders: 22
leechers: 9
updated:
Added by piratepedia754.14K in Movies
Torrent verified. Downloaded 789 times.

Summary:

A new menace emerges and the Dark Knight rises again to protect the city from a merciless terrorist with the help of anti-heroine Selina Kyle.

Written by 5fingerdis64.54K
The Dark Knight Rises (2012) DVDRip XviD-MAXSPEED (Size: 2.06 GB)
  The Dark Knight Rises (2012) DVDRip XviD-MAXSPEED ww.torentz.3xforum.ro.avi 2.05 GB
  sample.avi 9.48 MB
  screencaps.jpeg 554.01 KB
  The Dark Knight Rises (2012) DVDRip XviD-MAXSPEED.nfo 3.3 KB
  Torrent downloaded from Kat.ph.txt 46 bytes
  Torrent downloaded from extratorrent.com.txt 40 bytes
  Torrent downloaded from Rarbg.com.txt 33 bytes
  torrent downloaded from H33T.com.txt 32 bytes

Description

http://www.torentz.3xforum.ro/post/2924/1/The_Dark_Knight_Rises_2012_DVDRip_XviD-MAXSPEED/

image
.
Screens:
.
image
image
image
image
.
Alternative:
.
http://www.postimg.com/image/92000/1-91094.jpg
http://www.postimg.com/image/92000/2-91095.jpg
http://www.postimg.com/image/92000/3-91096.jpg
http://www.postimg.com/image/92000/5-91097.jpg

.
ScreenCaps:
.
image
.
The Dark Knight Rises (2012) DVDRip XviD-MAXSPEED
Format : AVI
Format/Info : Audio Video Interleave
Format profile : OpenDML
File size : 2.05 GiB
Duration : 2h 44mn
Overall bit rate : 1 784 Kbps
Writing application : VirtualDubMod 1.5.10.2 (build 2542/release)
Writing library : VirtualDubMod build 2542/release
Original source form : MAX TORRENTZ
Copyright : SIGISMUNT
.
Video
ID : 0
Format : MPEG-4 Visual
Format profile : Advanced Simple@L5
Format settings, BVOP : 2
Format settings, QPel : No
Format settings, GMC : No warppoints
Format settings, Matrix : Default (MPEG)
Codec ID : XVID
Codec ID/Hint : XviD
Duration : 2h 44mn
Bit rate : 1 324 Kbps
Width : 720 pixels
Height : 400 pixels
Display aspect ratio : 16:9
Frame rate : 23.976 fps
Color space : YUV
Chroma subsampling : 4:2:0
Bit depth : 8 bits
Scan type : Progressive
Compression mode : Lossy
Bits/(Pixel*Frame) : 0.192
Stream size : 1.52 GiB (74%)
Writing library : XviD 1.2.1 (UTC 2008-12-04)
.
Audio
ID : 1
Format : AC-3
Format/Info : Audio Coding 3
Mode extension : CM (complete main)
Format settings, Endianness : Big
Codec ID : 2000
Duration : 2h 44mn
Bit rate mode : Constant
Bit rate : 448 Kbps
Channel(s) : 6 channels
Channel positions : Front: L C R, Side: L R, LFE
Sampling rate : 48.0 KHz
Bit depth : 16 bits
Compression mode : Lossy
Stream size : 527 MiB (25%)
Alignment : Split accross interleaves
Interleave, duration : 42 ms (1.00 video frame)
Interleave, preload duration : 500 ms
.
Source: DVD (perfect a/v/sync quality,sample included)
This torrent is not seedbox supported,please seed it to the MAX
.
Note:If you have something to offer as early releases,seedboxes,
links,accounts,etc please contact us on torentz 3xforum ro
.
How To Get Your Maxspeed (uTorrent)
.
Torrent Client - Preferences - Bandwidth - Number of connections - Set aprox. 500 for each
Torrent Client - Preferences - BiTorrent - Protocol Encryption - Forced
Bandwidth Allocation - High (Set download/upload limit - Unlimited)
Stop Other Active Torrents - Start downloading and wait for connections.
Enjoy and Seed for at least 1:1 ratio. Don't forget to say thanks/leave reviews.
Before downloading you should check/google search sample "release name""sample".
Greets to all actual/future p2p/scene QUALITY groups and affiliate websites.
Don't trust IMDb robot or bad ratings,always watch some trailers first.
Ignore stupid comments/fake/mislabeled/no-DVDrips/CAM/TS/RAR uploads.
Please spread this release/torrent to your friends/forums/etc.
If you need translation subs visit some subtitles sites.
Report if you see online streaming or other spam links.
Recommended movie player VLC PLAYER.

Related Torrents

torrent name size files age seed leech

Sharing Widget


Download torrent
2.06 GB
seeders:19
leechers:4
The Dark Knight Rises (2012) DVDRip XviD-MAXSPEED



To share this torrent use the code below and insert it into comments, status messages, forum posts or your signature.

Torrent: The Dark Knight Rises (2012) DVDRip XviD-MAXSPEED

Trackers

tracker name
udp://tracker.publicbt.com:80/announce
udp://tracker.istole.it:80/announce
udp://tracker.coppersurfer.tk:6969/announce
udp://tracker.openbittorrent.com:80/announce
udp://open.demonii.com:1337/announce
udp://glotorrents.pw:6969/announce
udp://tracker.seedceo.com:2710/announce
udp://fr33domtracker.h33t.com:3310/announce
udp://tracker.beeimg.com:6969/announce
ĀµTorrent compatible trackers list

Locations

name
KickassTorrents
ThePirateBay
ExtraTorrent
Torrent hash: A0C2982E0B45552CD46284DB6563A1A2112BCE67

Uploader Comments

25
piratepedia754.14K
Uploader
for the parts of being a little oos hit the "k" six times on vlc delay 300ms, the source was like that,all versions have this delay on some parts

Top Comments

40
x3sphere5139
audio: 10video: 10
As expected, a perfect copy from piratepedia, the pirate king. lol Audio:10 Video:10 Uploader:10 titter
Been waiting ages for the good print to be released. With this movie, my 2012 year will be perfect. Thank you so much.. >.<
17
Nicholas39
audio: 7video: 9
Video was good, audio was a bit choppy - good movie overall
4
anonymous
yeah that works amazing!! great download

All Comments

audio
8/10
video
8/10
please, leave only comments related to that torrent
Sign In

audio: 9video: 9
thankss
audio: 10video: 10
Fantastic movie. Thank You Uploader! Great picture and sound. Fast download too.
audio: 9video: 9
Good quality. Thanks piratepedia/MAXSPEED.
audio: 4video: 8
video is good but audio is low and noisy
audio: 10video: 10
thanks
Show More All

User Opinions

mosthated24912538, Siimple2318, toxictoadz1243, dropzone426, shadabtorrent306, konruff2010270, M@rtin251, Marco7757169, raisrulez48, wpete57447 ... And 3113 more
Flauros11.3K, XristakisGr1249, ChiakiKuri1174, tweak0761000, takishol497, boscotuber250, iluvtorrents242, ahmetcn158, stoneyellie21, Altermattego10 ... And 112 more
Report a bug