The Dark Knight Rises 2012 Cam XviD Feel-Free

seeders: 0
leechers: 0
updated: yesterday
Added on Jul 25, 2012 in Movies
Torrent verified by BradsAnnoying95.08K, 3 years and 1 month ago. Downloaded 0 times.

Summary:
A new menace emerges and the Dark Knight rises again to protect the city from a merciless terrorist with the help of anti-heroine Selina Kyle.
Written by 5fingerdis62.55K
report summary
The Dark Knight Rises 2012 Cam XviD Feel-Free (Size: 1.05 GB)
  Read this before playing this Video.txt 222 bytes
  The Dark Knight Rises 2012 Cam XviD Feel-Free.avi 1.05 GB
  The Dark Knight Rises 2012 Cam XviD Feel-Free.nfo 3.24 KB
  Torrent have been downloaded from Scenetime.com.txt 222 bytes
  vlcsnap-2012-07-25-20h11m52s202.png 85.66 KB
  vlcsnap-2012-07-25-20h12m25s51.png 201.71 KB
  vlcsnap-2012-07-25-20h13m38s6.png 120.97 KB
  vlcsnap-2012-07-25-20h14m04s6.png 227.25 KB

Description

.
..............................Site Info...........................

- http://www.scenetime.com *_*

Scenetime .Always on time . friendly online private torrent community ..

We care to share . Join us on http://www.scenetime.com

Be the first to get new release at http://www.scenetime.com

Seed back for speed


...................................NFO:.................................................image
image


Genre:Action | Adventure | Crime
Language:English
IMDb:http://www.imdb.com/title/tt1345836/
Source:26K Thanks
Encoder:Tony

Format : AVI
Format/Info : Audio Video Interleave
File size : 1.05 GiB
Duration : 2h 36mn
Overall bit rate : 958 Kbps

Video
ID : 0
Format : MPEG-4 Visual
Format profile : Advanced Simple@L5
Format settings, BVOP : 1
Format settings, QPel : No
Format settings, GMC : No warppoints
Format settings, Matrix : Default (H.263)
Codec ID : XVID
Codec ID/Hint : XviD
Duration : 2h 36mn
Bit rate : 787 Kbps
Width : 640 pixels
Height : 264 pixels
Display aspect ratio : 2.40:1
Frame rate : 29.970 fps
Color space : YUV
Chroma subsampling : 4:2:0
Bit depth : 8 bits
Scan type : Progressive
Compression mode : Lossy
Bits/(Pixel*Frame) : 0.155
Stream size : 882 MiB (82%)
Writing library : XviD 1.2.1 (UTC 2008-12-04)

Audio
ID : 1
Format : AC-3
Format/Info : Audio Coding 3
Mode extension : CM (complete main)
Codec ID : 2000
Duration : 2h 36mn
Bit rate mode : Constant
Bit rate : 160 Kbps
Channel(s) : 2 channels
Channel positions : Front: L R
Sampling rate : 48.0 KHz
Bit depth : 16 bits
Compression mode : Lossy
Stream size : 179 MiB (17%)
Alignment : Aligned on interleaves
Interleave, duration : 33 ms (1.00 video frame)
Interleave, preload duration : 512 ms


Plot:
Eight years on, a new terrorist leader, Bane, overwhelms Gotham's finest, and the Dark Knight resurfaces to protect a city that has branded him an enemy.




Greets:
CRYS,INSPiRAL,IMAGINE,LKRG,ADTRG,FXG,3Li,FLAWL3SS,CrEwSaDe,TA,iLLUSiON,EMBER,HOPE,GooN,BBnRG,NOGRP,ETRG,BHRG,iLLUMiNATi,MiSTERE.ViSiON,DTRG SAFCuk009,LU,TheFalcon007,MYSTiC,PrisM,Noir,WBZ,LAP,Rx,Kingdom,SAFCuk009+Fabreezy,HDLiTE,TWiZTED,ETRG.ELEKTRI4KA,MAGNAT,CM8
And to all the other p2p grps past and present

Related Torrents

torrent name size files age seed leech

Sharing Widget


Download torrent
1.05 GB
seeders:0
leechers:0
The Dark Knight Rises 2012 Cam XviD Feel-Free



To share this torrent use the code below and insert it into comments, status messages, forum posts or your signature.

Torrent: The Dark Knight Rises 2012 Cam XviD Feel-Free

Trackers

tracker name Status
udp://tracker.istole.it:80/announce
active
udp://tracker.publicbt.com:80/announce
active
udp://tracker.1337x.org:80/announce
active
http://tracker.istole.it/announce
active
udp://tracker.openbittorrent.com:80/announce
active
http://exodus.desync.com:6969/announce
blocked
udp://fr33domtracker.h33t.com:3310/announce
deleted
http://tracker.publicbt.com/announce
deleted
ĀµTorrent compatible trackers list

Locations

name
ThePirateBay
Torrent hash: 6B2F67039A91AE6C49AC7EE9BE3D315ED730B6AA

All Comments

audio
4/10
video
4/10
please, leave only comments related to that torrent
or sign-in

0
kanada6252 • 26 Jul 2012, 01:31
torrent downloaded
Show comment
audio: 4video: 4
thx

User Opinions

Report a bug