The Dark Knight Rises 2012 ANOTHER NEW SOURCE TS XViD UNiQUE

seeders: 0
leechers: 0
updated:
Added in Movies
Torrent verified. Downloaded 0 times.

Summary:

A new menace emerges and the Dark Knight rises again to protect the city from a merciless terrorist with the help of anti-heroine Selina Kyle.

Written by 5fingerdis64.78K
The Dark Knight Rises 2012 ANOTHER NEW SOURCE TS XViD UNiQUE (Size: 1.99 GB)
  The Dark Knight Rises 2012 ANOTHER NEW SOURCE TS XViD UNiQUE.avi 1.97 GB
  sample.avi 16.43 MB

Description




ooooo ooo ooooo ooo o8o .oooooo. ooooo ooo oooooooooooo

`888' `8' `888b. `8' `"' d8P' `Y8b `888' `8' `888' `8

888 8 8 `88b. 8 oooo 888 888 888 8 888

888 8 8 `88b. 8 `888 888 888 888 8 888oooo8

888 8 8 `88b.8 888 888 888 888 8 888 "

`88. .8' 8 `888 888 `88b d88b `88. .8' 888 o

`YbodP' o8o `8 o888o `Y8bood8P'Ybd' `YbodP' o888ooooood8



.........why be the same as everyone else when YOU can be UNiQUE.........



Format : AVI

Format/Info : Audio Video Interleave

File size : 1.97 GiB

Duration : 2h 36mn

Overall bit rate : 1 805 Kbps

Writing library : VirtualDub build 28225/release
Video

ID : 0

Format : MPEG-4 Visual

Format profile : Advanced Simple@L5

Format settings, BVOP : 2

Format settings, QPel : No

Format settings, GMC : No warppoints

Format settings, Matrix : Default (H.263)

Muxing mode : Packed bitstream

Codec ID : XVID

Codec ID/Hint : XviD

Duration : 2h 36mn

Bit rate : 1 665 Kbps

Width : 720 pixels

Height : 272 pixels

Display aspect ratio : 2.647

Frame rate : 29.970 fps

Color space : YUV

Chroma subsampling : 4:2:0

Bit depth : 8 bits

Scan type : Progressive

Compression mode : Lossy

Bits/(Pixel*Frame) : 0.284

Stream size : 1.82 GiB (92%)

Writing library : XviD 64
Audio

ID : 1

Format : MPEG Audio

Format version : Version 1

Format profile : Layer 3

Codec ID : 55

Codec ID/Hint : MP3

Duration : 2h 36mn

Bit rate mode : Constant

Bit rate : 128 Kbps

Channel(s) : 2 channels

Sampling rate : 44.1 KHz

Compression mode : Lossy

Stream size : 143 MiB (7%)

Alignment : Split accross interleaves

Interleave, duration : 33 ms (1.00 video frame)

Interleave, preload duration : 500 ms

Writing library : LAME3.98.4UU9pÈ*E


http://www.imdb.com/title/tt1345836/


Ratings: 8.9/10 from 362,802 users Metascore: 78/100

Reviews: 2,036 user | 544 critic | 45 from Metacritic.com
Eight years on, a new terrorist leader, Bane, overwhelms Gotham's finest, and the Dark Knight resurfaces to protect a city
that has branded him an enemy.
Director:

Christopher Nolan

Writers:

Jonathan Nolan (screenplay), Christopher Nolan (screenplay), and 3 more credits »

Stars:

Christian Bale, Tom Hardy and Anne Hathaway | See full cast and crew

Source Used
Il.Cavaliere.Oscuro.Il.Ritorno.2012.iTALIAN.MD.HDCAM.XviD.MeP/INSPiRAL...........Thanks


Enjoy


Greets

INSPiRAL,LEGION,iLLUSiON,DiLLON,THORN,DQ1,26K,ETRG .......and thats about it

Related Torrents

torrent name size files age seed leech

Sharing Widget


Download torrent
1.99 GB
seeders:0
leechers:0
The Dark Knight Rises 2012 ANOTHER NEW SOURCE TS XViD UNiQUE



To share this torrent use the code below and insert it into comments, status messages, forum posts or your signature.

Torrent: The Dark Knight Rises 2012 ANOTHER NEW SOURCE TS XViD UNiQUE

Trackers

tracker name
udp://tracker.publicbt.com:80/announce
udp://tracker.istole.it:80/announce
udp://tracker.1337x.org:80/announce
udp://tracker.openbittorrent.com:80/announce
http://tracker.istole.it/announce
http://exodus.desync.com:6969/announce
http://fr33dom.h33t.com:3310/announce
http://tracker.publicbt.com/announce
udp://fr33domtracker.h33t.com:3310/announce
µTorrent compatible trackers list

Locations

name
ExtraTorrent
Torrent hash: F63F620E5F78D1923A6CA7E2358341F7754A8CF1

All Comments

audio
0/10
video
0/10
please, leave only comments related to that torrent
Sign In

Needs more seeders, Keeps pinging out.

User Opinions

Report a bug