The Dark Knight Rises 2012 720P HDTS Xvid AAC-bRaVo

seeders: 0
leechers: 0
updated: 1 week ago
Added on Sep 14, 2012 by chaitoo2600 in Movies > Dubbed Movies
Torrent verified. Downloaded 0 times.

Summary:
A new menace emerges and the Dark Knight rises again to protect the city from a merciless terrorist with the help of anti-heroine Selina Kyle.
Written by 5fingerdis62.51K
report summary
The Dark Knight Rises 2012 720P HDTS Xvid AAC-bRaVo (Size: 1.29 GB)
  The Dark Knight Rises 2012 720P R6 Xvid AAC-bRaVo.rmvb 1.29 GB
  1.png 872.47 KB
  Torrent downloaded from extratorrent.com.txt 353 bytes

Description

image
Format : RealMedia
File size : 1.29 GiB
Duration : 2h 37mn
Overall bit rate : 1 153 Kbps
Video
ID : 0
Format : RealVideo 4
Codec ID : RV40
Codec ID/Info : Based on AVC (H.264), Real Player 9
Duration : 2h 37mn
Bit rate : 1 025 Kbps
Width : 1 280 pixels
Height : 720 pixels
Display aspect ratio : 16:9
Frame rate : 23.976 fps
Bits/(Pixel*Frame) : 0.046
Stream size : 1.13 GiB (88%)
Audio
ID : 1
Format : AAC
Format/Info : Advanced Audio Codec
Format profile : LC
Codec ID : raac
Codec ID/Info : Real Player 9
Duration : 2h 37mn
Bit rate : 128 Kbps
Channel(s) : 2 channels
Sampling rate : 44.1 KHz
Bit depth : 16 bits
Compression mode : Lossy
Stream size : 145 MiB (11%)
Note: 1.The audio is Chinese,well hope someone syncs this to the english Line.

2.Video has a watermark that appears and then disappears.

3.NO sub.
Nice New source for Encoder!

Sharing Widget


Download torrent
1.29 GB
seeders:0
leechers:0
The Dark Knight Rises 2012 720P HDTS Xvid AAC-bRaVo

Trackers

tracker name Status
udp://tracker.openbittorrent.com:80/announce
outdated
udp://tracker.publicbt.com:80/announce
outdated
udp://tracker.istole.it:80/announce
outdated
http://tracker.istole.it/announce
outdated
http://announce.opensharing.org:2710/announce
outdated
http://pow7.com/announce
outdated
http://exodus.desync.com:6969/announce
blocked
http://tracker.publicbt.com/announce
deleted
udp://fr33domtracker.h33t.com:3310/announce
deleted
http://cdnserver.nivalnetwork.com:6969/announce
active
ĀµTorrent compatible trackers list

Locations

name
KickassTorrents
ExtraTorrent
Torrent hash: BCDF854C1204C481E7691CD5299874BCC8A12E50

All Comments

audio
3/10
video
8/10
please, leave only comments related to that torrent
or sign-in

0
anonymous • 12 Oct 2012, 11:39 Show comment
Replacing the audio, for english one, uploading it in the next 2 hours
0
anonymous • 17 Oct 2012, 19:02 Show comment
link plz...
0
anonymous • 07 Nov 2012, 06:11 Show comment
anything?

0
Pavel07281135 • 20 Sep 2012, 21:37
torrent downloaded
Show comment
audio: 1video: 8
Chinese audio and without Eng subs so no use !!!
Wait for better Rip ..biggrin
0
anonymous • 15 Sep 2012, 05:29 Show comment
audio: 10video: 10
2 5 audio che
0
anonymous • 14 Sep 2012, 22:18 Show comment
Where can I download the English version
0
anonymous • 16 Sep 2012, 22:48 Show comment
u can buy it when it comes out
0
anonymous • 29 Sep 2012, 06:50 Show comment
I said download not buying
-1
anonymous • 30 Sep 2012, 19:59 Show comment
Comment is deleted
0
anonymous • 04 Nov 2012, 09:23 Show comment
wtf??
0
ckv11068 • 04 Nov 2012, 19:26 Show comment
If someone wanted to buy something , they wouldn't be here u effer! _|_

0
anonymous • 14 Sep 2012, 21:46 Show comment
please tell me it up in english please!!!!
0
Victry41.75K • 14 Sep 2012, 18:07 Show comment
ENGLISH VERSION IS UP
0
anonymous • 14 Sep 2012, 21:43 Show comment
is it ready

0
anonymous • 14 Sep 2012, 15:09 Show comment
audio: 1video: 8
it is china crap
0
dollebolle251 • 14 Sep 2012, 11:30
torrent downloaded
Show comment
audio: 4video: 5
terrible
even the dvdrp are better dont call this 720p
-1
anonymous • 14 Sep 2012, 13:04 Show comment
cry moar
0
anonymous • 14 Sep 2012, 13:05 Show comment
OMG TARD U DONT KNOW WHAT 720P MEANS !!! GO DOWNLOAD DVDRIP THEN... IF YOU CAN !! RETARD !!! GREAT VIDEO QUALITY BUT AUDIO IN CHINESE !!!

Show More All
0
eremer1255 • 27 Sep 2012, 15:51
torrent downloaded
Show comment
audio: 3video: 8

User Opinions

Report a bug