The Dark Knight Rises 2012 720P HDTS Xvid AAC-bRaVo

seeders: 0
leechers: 0
updated:
Added by chaitoo2650 in Movies > Dubbed Movies
Torrent verified. Downloaded 10 times.

Summary:

A new menace emerges and the Dark Knight rises again to protect the city from a merciless terrorist with the help of anti-heroine Selina Kyle.

Written by 5fingerdis65.67K
The Dark Knight Rises 2012 720P HDTS Xvid AAC-bRaVo (Size: 1.29 GB)
  The Dark Knight Rises 2012 720P R6 Xvid AAC-bRaVo.rmvb 1.29 GB
  1.png 872.47 KB
  Torrent downloaded from extratorrent.com.txt 353 bytes

Description

image
Format : RealMedia
File size : 1.29 GiB
Duration : 2h 37mn
Overall bit rate : 1 153 Kbps
Video
ID : 0
Format : RealVideo 4
Codec ID : RV40
Codec ID/Info : Based on AVC (H.264), Real Player 9
Duration : 2h 37mn
Bit rate : 1 025 Kbps
Width : 1 280 pixels
Height : 720 pixels
Display aspect ratio : 16:9
Frame rate : 23.976 fps
Bits/(Pixel*Frame) : 0.046
Stream size : 1.13 GiB (88%)
Audio
ID : 1
Format : AAC
Format/Info : Advanced Audio Codec
Format profile : LC
Codec ID : raac
Codec ID/Info : Real Player 9
Duration : 2h 37mn
Bit rate : 128 Kbps
Channel(s) : 2 channels
Sampling rate : 44.1 KHz
Bit depth : 16 bits
Compression mode : Lossy
Stream size : 145 MiB (11%)
Note: 1.The audio is Chinese,well hope someone syncs this to the english Line.

2.Video has a watermark that appears and then disappears.

3.NO sub.
Nice New source for Encoder!

Sharing Widget


Download torrent
1.29 GB
seeders:0
leechers:0
The Dark Knight Rises 2012 720P HDTS Xvid AAC-bRaVo



To share this torrent use the code below and insert it into comments, status messages, forum posts or your signature.

Torrent: The Dark Knight Rises 2012 720P HDTS Xvid AAC-bRaVo

Trackers

tracker name
udp://tracker.openbittorrent.com:80/announce
udp://tracker.publicbt.com:80/announce
udp://tracker.istole.it:80/announce
http://tracker.istole.it/announce
http://announce.opensharing.org:2710/announce
http://pow7.com/announce
http://exodus.desync.com:6969/announce
http://tracker.publicbt.com/announce
udp://fr33domtracker.h33t.com:3310/announce
http://cdnserver.nivalnetwork.com:6969/announce
ĀµTorrent compatible trackers list

Locations

name
KickassTorrents
ExtraTorrent
Torrent hash: BCDF854C1204C481E7691CD5299874BCC8A12E50

All Comments

audio
3/10
video
8/10
please, leave only comments related to that torrent
Sign In

Replacing the audio, for english one, uploading it in the next 2 hours

audio: 1video: 8
Chinese audio and without Eng subs so no use !!!
Wait for better Rip ..biggrin
audio: 10video: 10
2 5 audio che
Where can I download the English version
u can buy it when it comes out
I said download not buying
Comment is deleted
If someone wanted to buy something , they wouldn't be here u effer! _|_

please tell me it up in english please!!!!
ENGLISH VERSION IS UP

audio: 1video: 8
it is china crap
audio: 4video: 5
terrible
even the dvdrp are better dont call this 720p
OMG TARD U DONT KNOW WHAT 720P MEANS !!! GO DOWNLOAD DVDRIP THEN... IF YOU CAN !! RETARD !!! GREAT VIDEO QUALITY BUT AUDIO IN CHINESE !!!

Show More All

User Opinions

Report a bug