The.Cat.In.The.Hat.Up.And.Away.2011 DVDRip Xvid AC3 LKRG

seeders: 0
leechers: 1
updated:
Added in Movies
Downloaded 10 times.

Summary:
No summary yet
The.Cat.In.The.Hat.Up.And.Away.2011 DVDRip Xvid AC3 LKRG (Size: 759.41 MB)
  cithu&aLKRG.part37.rar 14.31 MB
  cithu&aLKRG.part36.rar 14.31 MB
  cithu&aLKRG.part38.rar 14.31 MB
  cithu&aLKRG.part39.rar 14.31 MB
  cithu&aLKRG.part41.rar 14.31 MB
  cithu&aLKRG.part40.rar 14.31 MB
  cithu&aLKRG.part35.rar 14.31 MB
  cithu&aLKRG.part34.rar 14.31 MB
  cithu&aLKRG.part30.rar 14.31 MB
  cithu&aLKRG.part29.rar 14.31 MB
  cithu&aLKRG.part31.rar 14.31 MB
  cithu&aLKRG.part32.rar 14.31 MB
  cithu&aLKRG.part33.rar 14.31 MB
  cithu&aLKRG.part42.rar 14.31 MB
  cithu&aLKRG.part43.rar 14.31 MB
  cithu&aLKRG.part52.rar 14.31 MB
  cithu&aLKRG.part51.rar 14.31 MB
  cithu&aLKRG.part53.rar 14.31 MB
  cithu&aLKRG.part54.rar 1.04 MB
  Cover.jpg 192.14 KB
  cithu&aLKRG.part50.rar 14.31 MB
  cithu&aLKRG.part49.rar 14.31 MB
  cithu&aLKRG.part45.rar 14.31 MB
  cithu&aLKRG.part44.rar 14.31 MB
  cithu&aLKRG.part46.rar 14.31 MB
  cithu&aLKRG.part47.rar 14.31 MB
  cithu&aLKRG.part48.rar 14.31 MB
  cithu&aLKRG.part28.rar 14.31 MB
  cithu&aLKRG.part27.rar 14.31 MB
  cithu&aLKRG.part08.rar 14.31 MB
  And 26 files more

Description

INFO


Format;Avi

File Size:717mb

Video: ID : 0
Format : MPEG-4 Visual
Format profile : Advanced Simple@L5
Format settings, BVOP : Yes
Format settings, QPel : No
Format settings, GMC : No warppoints
Format settings, Matrix : Custom
Codec ID : XVID
Codec ID/Hint : XviD
Duration : 1h 0mn
Bit rate : 1 523 Kbps
Width : 680 pixels
Height : 384 pixels
Display aspect ratio : 16:9
Frame rate : 29.970 fps
Color space : YUV
Chroma subsampling : 4:2:0
Bit depth : 8 bits
Scan type : Progressive
Bits/(Pixel*Frame) : 0.195
Stream size : 654 MiB (85%)
Writing library : XviD 1.2.1 (UTC 2008-12-04)


Audio: ID : 1
Format : AC-3
Format/Info : Audio Coding 3
Mode extension : CM (complete main)
Codec ID : 2000
Duration : 1h 0mn
Bit rate mode : Constant
Bit rate : 256 Kbps
Channel(s) : 2 channels
Channel positions : Front: L R
Sampling rate : 48.0 KHz
Bit depth : 16 bits
Stream size : 110 MiB (14%)
Alignment : Aligned on interleaves
Interleave, duration : 33 ms (1.00 video frame)
Interleave, preload duration : 512 ms

Duration:1:00

Release Date:2011

Language:English

Related Torrents

torrent name size files age seed leech

Sharing Widget


Download torrent
759.41 MB
seeders:0
leechers:1
The.Cat.In.The.Hat.Up.And.Away.2011 DVDRip Xvid AC3 LKRG



To share this torrent use the code below and insert it into comments, status messages, forum posts or your signature.

Torrent: The.Cat.In.The.Hat.Up.And.Away.2011 DVDRip Xvid AC3 LKRG

Trackers

tracker name
http://pow7.com/announce
http://10.rarbg.com/announce
http://genesis.1337x.org:1337/announce
http://exodus.1337x.org/announce
http://11.rarbg.com/announce
udp://tracker.publicbt.com:80/announce
udp://tracker.openbittorrent.com:80/announce
http://tracker.openbittorrent.com/announce
http://tracker.publicbt.com/announce
http://9.rarbg.com:2710/announce
ĀµTorrent compatible trackers list

Locations

name
ExtraTorrent
KickassTorrents
Limetorrents
1337x
Limetorrents
Torrent hash: 733d7b27fc6961044e346f7a866f9360cdf3818b

All Comments

audio
9/10
video
9/10
please, leave only comments related to that torrent
Sign In

The trailer is for ender's game the torrent is called the cat in the hat and the title is called Catching up with Henry and Aaron :(
audio: 9video: 8
legit, thanx2uploader&seederz:)
WHY .rar? Get with the programme, PLEASE! This is 2011, not 2001.
audio: 9video: 9
thanx
audio: 10video: 10
Cheers Up-Loader

User Opinions

Report a bug