The Book of Eli 2010 TS XviD-IMAGiNE avi

seeders: 1
leechers: 0
updated:
Added in Movies
Torrent verified. Downloaded 10 times.

Summary:

A post-apocalyptic tale, in which a lone man fights his way across America in order to protect a sacred book that holds the secrets to saving humankind.

Written by thePiratePimp72.76K
Available in versions: 1080p720pHDRiPDVDRipx264TeleSync
The Book of Eli 2010 TS XviD-IMAGiNE avi (Size: 726.29 MB)
  The.Book.of.Eli.2010.TS.XviD-IMAGiNE.avi 705.4 MB
  the.book.of.eli.sample.avi 20.88 MB
  dupedb.com.txt 298 bytes

Description

MORE iNFO:

http://dupedb.com/

TRACKER:

http://tracker.dupedb.com/

XviD:

http://dupedb.com/category/XVID/

TV:

http://dupedb.com/category/tv/

Enjoy!

Ripper ...........: IMAGiNE
IMDB Rating.......:7.6/10
Video Codec.......: XVID
Release Date......:19/01/10
Audio Codec.......:MP3
Theatre Date......:15/01/10
Audio Bitrate.....:128
Runtime.......:1h 48mn
Subtitles.........:NIL
Language..........:ENGLISH
Resolution...... 608 x 256
IMDb URL..........:

http://www.imdb.com/title/tt1037705/

DETAILS:

Video
ID : 0
Format : MPEG-4 Visual
Format profile : Advanced Simple@L5
Format settings, BVOP : Yes
Format settings, QPel : No
Format settings, GMC : No warppoints
Format settings, Matrix : Default (H.263)
Muxing mode : Packed bitstream
Codec ID : XVID
Codec ID/Hint : XviD
Duration : 1h 48mn
Bit rate : 773 Kbps
Width : 608 pixels
Height : 256 pixels
Display aspect ratio : 2.35
Frame rate : 23.976 fps
Resolution : 24 bits
Colorimetry : 4:2:0
Scan type : Progressive
Bits/(Pixel*Frame) : 0.207
Stream size : 599 MiB (85%)
Writing library : XviD 1.2.1 (UTC 2008-12-04)

Audio
ID : 1
Format : MPEG Audio
Format version : Version 1
Format profile : Layer 3
Codec ID : 55
Codec ID/Hint : MP3
Duration : 1h 48mn
Bit rate mode : Constant
Bit rate : 128 Kbps
Channel(s) : 2 channels
Sampling rate : 44.1 KHz
Resolution : 16 bits
Video delay : 25ms
Stream size : 99.1 MiB (14%)
Alignment : Split accross interleaves
Interleave, duration : 42 ms (1.00 video frame)
Interleave, preload duration : 500 ms


NOTES:

IMAGiNE bringing you another release.....
Here we go this time with the book of eli......for our video we used LU's (thanks) as it was the best todate.
The video itself is nothing special,low bitrate,small res etc.....also the colouring is weird on it in some parts,but
i believe thats how the film is made (same as daybreakers weird colouring).
The audio is our own,and sounds pretty good...loving the new toy
We've done some work on the video and then basically synced up our audio.....which wasn't easy due to the
video quality,but never the less we got it done.
Enjoy until our V2 comes out (once better video is available)

Related Torrents

torrent name size files age seed leech

Sharing Widget


Download torrent
726.29 MB
seeders:1
leechers:0
The Book of Eli 2010 TS XviD-IMAGiNE avi



To share this torrent use the code below and insert it into comments, status messages, forum posts or your signature.

Torrent: The Book of Eli 2010 TS XviD-IMAGiNE avi

Trackers

tracker name
http://tracker.openbittorrent.com/announce
udp://tracker.publicbt.com:80/announce
udp://tracker.openbittorrent.com:80/announce
http://tracker.publicbt.com/announce
µTorrent compatible trackers list

Locations

name
ThePirateBay
Torrentzap
Torrentzap
ExtraTorrent
TorrentPortal
BTjunkie
BTjunkie
Torrent hash: 20f68534e2966b758c77177d834ba7c71621b285

Top Comments

2
anonymous
eeh... v5a7
2
Negenius5184
working
2
anonymous
Please no fowl language... People are seeing this too. you should be happy people is hosting these torrents, You are getting an free ride to the movies. And I really don't see your interest in this torrent, so leave other people who visit this torrent out of this bad language... Remember that words can hurt others and it can be an weapon! It might even hunt you back 100 fold some day.
2
Daniel 5038
nice!!

All Comments

audio
5/10
video
4/10
please, leave only comments related to that torrent
Sign In

TERRIBLE QUALITY! DON'T WASTE YOUR TIME DOWNLOADING!
audio: 10video: 10
thanks a lot
audio: 5video: 2
horrible video, disaster
let me see this movie??? ok i comment again
how come these movies wont play in my dvd player only on my computer
you have to convert the file from avi, you should download easy avi divx xvid to dvd converter it is the best i have ever tried

not the best copy but still worth it
Show More All

User Opinions

Report a bug Open chat