The Book of Eli 2010 CAM Xvid TA avi

seeders: 0
leechers: 0
updated:
Added by iwannafan2616 in Movies
Downloaded 0 times.

Summary:

A post-apocalyptic tale, in which a lone man fights his way across America in order to protect a sacred book that holds the secrets to saving humankind.

Written by thePiratePimp72.75K
Available in versions: 1080p720pHDRiPDVDRipx264TeleSync
The Book of Eli 2010 CAM Xvid TA avi (Size: 706.19 MB)
  The Book of Eli 2010 CAM www.IWANNADOWNLOAD.com.avi 698.64 MB
  sample.avi 7.56 MB
  The Book of Eli.txt 2.83 KB

Description

http://www.imdb.com/title/tt1037705/

Video Sample:

http://www.movshare.net/video/s9iu9g5h5iz81
/>


http://i46.tinypic.com/33w8b53.jpg







http://i47.tinypic.com/4q530p.jpg



http://i50.tinypic.com/anbk1g.jpg



http://i48.tinypic.com/21vk41.jpg

Filename:

The.Book.of.Eli.2010.CAM.Xvid.TA.avi



Plot

A post-apocalyptic tale, in which a lone man fights his way across America in order to protect a sacred book that holds the secrets to saving humankind.



Source                           : LU

General

Complete name                    : The.Book.of.Eli.2010.CAM.Xvid.TA.avi

Format                           : AVI

Format/Info                      : Audio Video Interleave

File size                        : 699 MiB

Duration                         : 1h 48mn

Overall bit rate                 : 902 Kbps

Writing application              : Lavf50.6.0

Writing library                  : VirtualDub build 32661/release



Video

ID                               : 0

Format                           : MPEG-4 Visual

Format profile                   : AdvancedSimple@L5

Format settings, BVOP            : Yes

Format settings, QPel            : No

Format settings, GMC             : No warppoints

Format settings, Matrix          : Custom

Muxing mode                      : Packed bitstream

Codec ID                         : XVID

Codec ID/Hint                    : XviD

Duration                         : 1h 48mn

Bit rate                         : 793 Kbps

Width                            : 640 pixels

Height                           : 262 pixels

Display aspect ratio             : 2.40:1

Frame rate                       : 25.000 fps

Resolution                       : 24 bits

Colorimetry                      : 4:2:0

Scan type                        : Progressive

Bits/(Pixel*Frame)               : 0.189

Stream size                      : 615 MiB (88%)

Writing library                  : XviD 1.2.1 (UTC 2008-12-04)



Audio

ID                               : 1

Format                           : MPEG Audio

Format version                   : Version 1

Format profile                   : Layer 3

Codec ID                         : 55

Codec ID/Hint                    : MP3

Duration                         : 1h 48mn

Bit rate mode                    : Constant

Bit rate                         : 96.0 Kbps

Channel(s)                       : 2 channels

Sampling rate                    : 44.1 KHz

Resolution                       : 16 bits

Stream size                      : 74.4 MiB (11%)

Alignment                        : Aligned on interleaves

Interleave, duration             : 26 ms (0.65 video frame)

Interleave, preload duration     : 522 ms

Sharing Widget


Download torrent
706.19 MB
seeders:0
leechers:0
The Book of Eli 2010 CAM Xvid TA avi



To share this torrent use the code below and insert it into comments, status messages, forum posts or your signature.

Torrent: The Book of Eli 2010 CAM Xvid TA avi

Trackers

tracker name
http://tracker.openbittorrent.com/announce
udp://tracker.publicbt.com:80/announce
udp://tracker.openbittorrent.com:80/announce
http://tracker.publicbt.com/announce
µTorrent compatible trackers list

Locations

name
KickassTorrents
ExtraTorrent
TorrentReactor
Torrentzap
isoHunt
Torrent hash: f4a933742bcdccaa63be0fc5ff1173cfa0060fdf

All Comments

audio
6/10
video
6/10
please, leave only comments related to that torrent
Sign In

Disappointing movie. Video quality poor.
Kinda Fuzzy, But Watchable
audio: 9video: 8
Good Download..EDMoney
A/8 V/8
Show More All

User Opinions

Report a bug Open chat