The Best Exotic Marigold Hotel 2012 BRrip H264 AC3 BSBT-RG

seeders: 4
leechers: 1
Added on Jun 26, 2012 by .star1.160 in Movies
Downloaded 0 times.

The Best Exotic Marigold Hotel 2012 BRrip H264 AC3 BSBT-RG (Size: 1.58 GB)
  atomicbytes.nfo 4.27 KB
  BSBT_NFO please read.txt 6.46 KB
  THE BEST EXOTIC MARIGOLD HOTEL 2012 BRrip H264 AC3 STAR1.mp4 1.58 GB
  uploadwanted-1.gif 306.26 KB
  visit us at WWW.Blackstarbt.net.nfo 8.83 KB
  XTREME RAVERS.nfo 4.92 KB

Description

image
[CODE]http://www.imdb.com/title/tt1412386/[/CODE]
image

SCREENS:
image
image
image
image
image
image

Format : MPEG-4
Format profile : Base Media / Version 2
Codec ID : mp42
File size : 1.58 GiB
Duration : 2h 3mn
Overall bit rate mode : Variable
Overall bit rate : 1 827 Kbps
Encoded date : UTC 2012-06-25 19:07:03
Tagged date : UTC 2012-06-25 19:46:53
Writing application : HandBrake 0.9.6 2012022800

Video
ID : 1
Format : AVC
Format/Info : Advanced Video Codec
Format profile : High@L3.0
Format settings, CABAC : Yes
Format settings, ReFrames : 4 frames
Codec ID : avc1
Codec ID/Info : Advanced Video Coding
Duration : 2h 3mn
Bit rate mode : Variable
Bit rate : 1 500 Kbps
Width : 720 pixels
Height : 304 pixels
Display aspect ratio : 2.35:1
Original display aspect ratio : 2.35:1
Frame rate mode : Variable
Frame rate : 23.939 fps
Minimum frame rate : 13.605 fps
Maximum frame rate : 24.390 fps
Color space : YUV
Chroma subsampling : 4:2:0
Bit depth : 8 bits
Scan type : Progressive
Bits/(Pixel*Frame) : 0.286
Stream size : 1.30 GiB (82%)
Writing library : x264 core 120
Encoded date : UTC 2012-06-25 19:07:03
Tagged date : UTC 2012-06-25 19:46:53
Color primaries : BT.601-6 525, BT.1358 525, BT.1700 NTSC, SMPTE 170M
Transfer characteristics : BT.709-5, BT.1361
Matrix coefficients : BT.601-6 525, BT.1358 525, BT.1700 NTSC, SMPTE 170M

Audio #1
ID : 2
Format : AAC
Format/Info : Advanced Audio Codec
Format profile : LC
Codec ID : 40
Duration : 2h 3mn
Bit rate mode : Variable
Bit rate : 160 Kbps
Maximum bit rate : 307 Kbps
Channel(s) : 2 channels
Channel positions : Front: L R
Sampling rate : 48.0 KHz
Compression mode : Lossy
Delay relative to video : -83ms
Stream size : 142 MiB (9%)
Language : English
Encoded date : UTC 2012-06-25 19:07:03
Tagged date : UTC 2012-06-25 19:46:52

Audio #2
ID : 3
Format : AC-3
Format/Info : Audio Coding 3
Format profile : Dolby Digital
Mode extension : CM (complete main)
Format settings, Endianness : Big
Codec ID : ac-3
Duration : 2h 3mn
Bit rate mode : Constant
Bit rate : 160 Kbps
Channel(s) : 2 channels
Channel positions : Front: L R
Sampling rate : 48.0 KHz
Bit depth : 16 bits
Compression mode : Lossy
Delay relative to video : -83ms
Stream size : 142 MiB (9%)
Language : English
Encoded date : UTC 2012-06-25 19:07:03
Tagged date : UTC 2012-06-25 19:46:52

TRACKERS:

[CODE]http://fr33dom.h33t.com:3310/announce

http://inferno.demonoid.me:3418/announce

http://tracker.publicbt.com:80/announce

http://exodus.desync.com:6969/announce

http://tracker.torrent.to:2710/announce

http://tracker.ex.ua/announce

http://tracker.torrentbay.to:6969/announce

http://tracker.pow7.com/announce

http://tracker.prq.to/announce

http://ipv4.tracker.harry.lu/announce

http://10.rarbg.com/announce

udp://tracker.1337x.org:80/announce

udp://tracker.openbittorrent.com:80/announce

udp://tracker.novalayer.org:6969/announce[/CODE]

INFOHASH: 3769C309B1E92A1681EAAE5F1303C09466FBC157

GREETZ TO ALL RG's BLACKSTARBT.NET IS YOUR NUMBER 1 STOP FOR ALL YOUR TORRENT NEEDS

image

Related Torrents

torrent name size files age seed leech

Sharing Widget


Download torrent
1.58 GB
seeders:4
leechers:1
The Best Exotic Marigold Hotel 2012 BRrip H264 AC3 BSBT-RG

Trackers

tracker name Status checked seeders leechers downloads
http://ipv4.tracker.harry.lu/announce
outdated 26 Jun 2012 - - -
udp://tracker.istole.it:80/announce
outdated 26 Jun 2012 - - -
udp://tracker.1337x.org:80/announce
outdated 26 Jun 2012 - - -
http://10.rarbg.com/announce
private 26 Jun 2012 - - -
udp://tracker.publicbt.com:80/announce
outdated 26 Jun 2012 - - -
http://tracker.istole.it/announce
outdated 26 Jun 2012 - - -
udp://tracker.openbittorrent.com:80/announce
outdated 26 Jun 2012 - - -
http://tracker.publicbt.com/announce
deleted 11 Mar 2013 - - -
udp://fr33domtracker.h33t.com:3310/announce
deleted 26 Jun 2012 - - -
udp://tracker.novalayer.org:6969/announce
pending 26 Jun 2012 0 0 0
ĀµTorrent compatible trackers list

Locations

name
KickassTorrents
Torrent hash: 3769C309B1E92A1681EAAE5F1303C09466FBC157

All Comments

audio
0/10
video
0/10
please, leave only comments related to that torrent
or sign-in

User Opinions

Report a bug