The Avengers 2012 V1 CAM XViD DTRG

seeders: 0
leechers: 0
updated:
Added by Evil Boy™18.44K in Movies
Torrent verified. Downloaded 10 times.

Summary:

Earth's mightiest heroes must come together and learn to fight as a team if they are to stop the mischievous Loki and his alien army from enslaving humanity.

Written by Deckard.Shaw327.82K
The Avengers 2012 V1 CAM XViD DTRG (Size: 1.9 GB)
  The.part28.rar 47.68 MB
  The.part29.rar 47.68 MB
  The.part30.rar 47.68 MB
  The.part31.rar 47.68 MB
  The.part27.rar 47.68 MB
  The.part26.rar 47.68 MB
  The.part22.rar 47.68 MB
  The.part23.rar 47.68 MB
  The.part24.rar 47.68 MB
  The.part25.rar 47.68 MB
  The.part32.rar 47.68 MB
  The.part33.rar 47.68 MB
  The.part39.rar 47.68 MB
  The.part40.rar 47.68 MB
  The.part41.rar 29.59 MB
  sfv.sfv 1.05 KB
  The.part38.rar 47.68 MB
  The.part37.rar 47.68 MB
  The.part34.rar 47.68 MB
  The.part35.rar 47.68 MB
  The.part36.rar 47.68 MB
  The.part21.rar 47.68 MB
  The.part20.rar 47.68 MB
  The.part05.rar 47.68 MB
  The.part06.rar 47.68 MB
  The.part07.rar 47.68 MB
  The.part08.rar 47.68 MB
  The.part04.rar 47.68 MB
  The.part03.rar 47.68 MB
  sample.avi 11.26 MB
  And 13 files more

Description

The Avengers 2012 V1 CAM XViD DTRG
Format : AVI
Format/Info : Audio Video Interleave
File size : 1.90 GiB
Duration : 2h 11mn
Overall bit rate : 2 070 Kbps
Writing library : VirtualDub build 32842/release
Video
ID : 0
Format : MPEG-4 Visual
Format profile : Advanced Simple@L5
Format settings, BVOP : 2
Format settings, QPel : No
Format settings, GMC : No warppoints
Format settings, Matrix : Default (H.263)
Muxing mode : Packed bitstream
Codec ID : XVID
Codec ID/Hint : XviD
Duration : 2h 11mn
Bit rate : 1 864 Kbps
Width : 720 pixels
Height : 338 pixels
Display aspect ratio : 2.2:1
Frame rate : 30.000 fps
Color space : YUV
Chroma subsampling : 4:2:0
Bit depth : 8 bits
Scan type : Progressive
Compression mode : Lossy
Bits/(Pixel*Frame) : 0.255
Stream size : 1.71 GiB (90%)
Writing library : XviD 64
Audio
ID : 1
Format : MPEG Audio
Format version : Version 1
Format profile : Layer 3
Mode : Joint stereo
Mode extension : MS Stereo
Codec ID : 55
Codec ID/Hint : MP3
Duration : 2h 11mn
Bit rate mode : Constant
Bit rate : 192 Kbps
Channel(s) : 2 channels
Sampling rate : 44.1 KHz
Compression mode : Lossy
Stream size : 181 MiB (9%)
Alignment : Aligned on interleaves
Interleave, duration : 26 ms (0.78 video frame)
Interleave, preload duration : 522 ms
Link: http://www.imdb.com/title/tt0848228/
Plot: Nick Fury is director of S.H.I.E.L.D, an international peace keeping agency. The agency is a who's who of Marvel Super Heroes, with Iron Man, The Incredible Hulk, Thor, Captain America, Hawkeye and Black Widow. When global security is threatened by Loki and his cohorts, Nick Fury and his team will need all their powers to save the world from disaster.
Cast:
Robert Downey Jr. ... Tony Stark / Iron Man
Chris Evans ... Steve Rogers / Captain America
Mark Ruffalo ... Bruce Banner / The Hulk
Chris Hemsworth ... Thor
Scarlett Johansson ... Natasha Romanoff / Black Widow
Jeremy Renner ... Clint Barton / Hawkeye
Tom Hiddleston ... Loki
Source Used
Well here we go with V1.............Flaws..........Vid has greek subs throughout,has a slight wave/scroll,camera movement,AR changes throughout
Loads of blah blah filters should i say what ...........no too tired lmao just check out the sample provided .......v2 not so far away ...choices ,choices
Hey Dennis367, you could be right about 300 versions of this bro ....
http://bitpic.bitboxes.co.uk/images/242The_Avengers_Logo.jpg
Screenshots
http://bitpic.bitboxes.co.uk/images/993vlcsnap2012042808h17m1.png
http://bitpic.bitboxes.co.uk/images/217vlcsnap2012042808h19m2.png
http://bitpic.bitboxes.co.uk/images/853vlcsnap2012042808h33m3.png

Related Torrents

torrent name size files age seed leech

Sharing Widget


Download torrent
1.9 GB
seeders:0
leechers:0
The Avengers 2012 V1 CAM XViD DTRG



To share this torrent use the code below and insert it into comments, status messages, forum posts or your signature.

Torrent: The Avengers 2012 V1 CAM XViD DTRG

Trackers

tracker name
udp://tracker.istole.it:80/announce
udp://tracker.1337x.org:80/announce
udp://tracker.openbittorrent.com:80/announce
http://tracker.istole.it/announce
udp://tracker.publicbt.com:80/announce
http://exodus.desync.com:6969/announce
http://tracker.publicbt.com/announce
udp://fr33domtracker.h33t.com:3310/announce
http://tracker.torrentleech.org:2710/a/5276376abf0da8f70af632b8349bdf08/announce
µTorrent compatible trackers list

Locations

name
KickassTorrents
Torrent hash: 572085AAE3FDAA1CFF4A7C693AE01B5772DF97AB

All Comments

audio
0/10
video
0/10
please, leave only comments related to that torrent
Sign In

untwist your panties and comment on quality!
DOnT DOWNLOAD THIS TORRENT NOT GUD DOWNLOAD THIS ONE BEST DVDRIP http://j*.gs/1535204/avengers-2012-dvdrip Note Remove *from the link
If are some files on torrent in zip...dont download that torrent, you know is fake ( or you need password, survey )...
I`m glad your here to protect us NOT - you fool - this from a trusted uploader and with paranoia like yours i doubt you download much at all - FOOL!!
Maybe he's turned Evil. I mean, that's sort of the uploader's name... Evil. Maybe he's in with the MAFIAA. Or maybe jumping on some random person like a rabid dog makes you the fool. Or maybe nobody actually says FOOL!! anymore and it just makes you sound retarded. Fool.
Comment is deleted
damn fool! just look at the files and you'll be all smiles because you Look for those bare necessities The simple bare necessities Forget about your worries and your strife I mean the bare necessities Old Mother Nature's recipes That brings the bare necessities of life! FOOL!


User Opinions

Report a bug