The Avengers 2012 TS XviD Feel-Free

seeders: 0
leechers: 0
updated:
Added by feel-free20.34K in Movies
Torrent verified. Downloaded 10 times.

Summary:

Earth's mightiest heroes must come together and learn to fight as a team if they are to stop the mischievous Loki and his alien army from enslaving humanity.

Written by Deckard.Shaw327.8K
The Avengers 2012 TS XviD Feel-Free (Size: 1.38 GB)
  056b35c67c.jpg 205.13 KB
  sample.avi 6.99 MB
  The Avengers 2012 TS XviD Feel-Free.avi 1.37 GB
  The Avengers 2012 TS XviD Feel-Free.nfo 3.32 KB
  Torrent downloaded from extratorrent.com.txt 171 bytes
  vlcsnap-2012-05-18-20h49m31s241.png 137.37 KB
  vlcsnap-2012-05-18-20h49m49s166.png 317.66 KB
  vlcsnap-2012-05-18-20h50m01s22.png 121.16 KB
  vlcsnap-2012-05-18-20h50m51s13.png 245 KB
  vlcsnap-2012-05-18-20h50m58s88.png 261.01 KB
  vlcsnap-2012-05-18-20h51m38s226.png 229.81 KB

Description

http://img571.imageshack.us/img571/7510/402343bas1nu8x.jpg
http://iceimg.com/i/f0/0b/056b35c67c.jpg


Genre:Action | Adventure | Sci-Fi
Language:English
IMDb:http://www.imdb.com/title/tt0848228/
Source:4GB HDCAM/ADTRG/CM8 Thanks!
Sample:Yes
Encoder:Tony


Format : AVI
Format/Info : Audio Video Interleave
File size : 1.37 GiB
Duration : 2h 12mn
Overall bit rate : 1 479 Kbps

Video
ID : 0
Format : MPEG-4 Visual
Format profile : Advanced Simple@L5
Format settings, BVOP : 2
Format settings, QPel : No
Format settings, GMC : No warppoints
Format settings, Matrix : Default (H.263)
Muxing mode : Packed bitstream
Codec ID : XVID
Codec ID/Hint : XviD
Duration : 2h 12mn
Bit rate : 1 212 Kbps
Width : 720 pixels
Height : 304 pixels
Display aspect ratio : 2.35:1
Frame rate : 29.970 fps
Color space : YUV
Chroma subsampling : 4:2:0
Bit depth : 8 bits
Scan type : Progressive
Compression mode : Lossy
Bits/(Pixel*Frame) : 0.185
Stream size : 1.12 GiB (82%)
Writing library : XviD 62

Audio
ID : 1
Format : AC-3
Format/Info : Audio Coding 3
Mode extension : CM (complete main)
Codec ID : 2000
Duration : 2h 12mn
Bit rate mode : Constant
Bit rate : 256 Kbps
Channel(s) : 2 channels
Channel positions : Front: L R
Sampling rate : 48.0 KHz
Bit depth : 16 bits
Compression mode : Lossy
Delay relative to video : 19ms
Stream size : 243 MiB (17%)
Alignment : Split accross interleaves
Interleave, duration : 33 ms (1.00 video frame)
Interleave, preload duration : 500 ms


Plot:
Nick Fury of S.H.I.E.L.D. brings together a team of super humans to form The Avengers to help save the Earth from Loki and his army.

TRAILER:
[video=http://www.youtube.com/watch?v=tY9DnBNJFTI]

http://img594.imageshack.us/img594/9166/vlcsnap2012051820h49m31.png
http://img594.imageshack.us/img594/1500/vlcsnap2012051820h49m49.png
http://img840.imageshack.us/img840/5729/vlcsnap2012051820h50m01.png
http://img406.imageshack.us/img406/4707/vlcsnap2012051820h50m51.png
http://img254.imageshack.us/img254/1078/vlcsnap2012051820h51m38.png
http://img189.imageshack.us/img189/5049/vlcsnap2012051820h50m58.png


Greets:
CRYS,INSPiRAL,IMAGINE,LKRG,ADTRG,FXG,3Li,FLAWL3SS,TA,iLLUSiON,EMBER,HOPE,GooN,BBnRG,NOGRP,ETRG,BHRG,iLLUMiNATi,MiSTERE.ViSiON,DTRG SAFCuk009,LU,TheFalcon007,MYSTiC,PrisM,Noir,WBZ,LAP,Rx,Kingdom,SAFCuk009+Fabreezy,HDLiTE,TWiZTED,ETRG.ELEKTRI4KA,MAGNAT,CM8
And to all the other p2p grps past and present

Make sure its a real Feel-Free release @ http://extratorrent.com

Thanks to all who promotes release Feel-Free !!!

Related Torrents

torrent name size files age seed leech

Sharing Widget


Download torrent
1.38 GB
seeders:0
leechers:0
The Avengers 2012 TS XviD Feel-Free



To share this torrent use the code below and insert it into comments, status messages, forum posts or your signature.

Torrent: The Avengers 2012 TS XviD Feel-Free

Trackers

tracker name
http://tracker.istole.it/announce
udp://tracker.openbittorrent.com:80/announce
http://pow7.com/announce
udp://tracker.1337x.org:80/announce
udp://tracker.istole.it:80/announce
udp://tracker.publicbt.com:80/announce
http://exodus.desync.com:6969/announce
http://tracker.publicbt.com/announce
udp://fr33domtracker.h33t.com:3310/announce
http://tracker.novalayer.org:6969/announce
ĀµTorrent compatible trackers list

Locations

name
KickassTorrents
Torrent hash: 8B8FDBC1C9C1AF64669DA30084ADD298672CFBDD

All Comments

audio
8/10
video
8/10
please, leave only comments related to that torrent
Sign In

audio: 8video: 8
Great Quality Telesync!
There is the bright glow in the middle of the screen throughout the film. Film ends after a few seconds after the end credits start.
feel-free20.34K Earns First Thumbs Up!
Don't waste your time there's better rips

User Opinions

Report a bug