The 5 Deadly Venoms 1978 720p BRRIP x264 AC3

seeders: 1
leechers: 0
updated:
Added by bladereap3r6218 in Movies > Highres Movies
Downloaded 21 times.

Summary:

A dying teacher instructs his final student to check on the activities of five former pupils, each of whom he taught a unique and special style of kung-fu to: The Centipede, Snake, Scorpion, Lizard, and Toad (hence the title). His final student, who knows a little of each style must team up with one of the other good students to destroy the evil ones if there are any. Greed and treachery ensue as the student discovers that some of the students are indeed evil. But which one can he trust enough to team up with?

Written by MoonChild19.8K
Available in versions: 720pHDRiPDVDRip
The 5 Deadly Venoms 1978 720p BRRIP x264 AC3 (Size: 2.51 GB)
  The.5.Deadly.Venoms.1978.720p.BRRIP.x264.AC3.CrEwSaDe

Description

Notes: I can't take credit for these files just a share on my part - all credits to the original enc0der. Tnx!
Posterimage
******************************************************************************************************
**The.5.Deadly.Venoms.1978.720p.BRRIP.x264.AC3.CrEwSaDe **
******************************************************************************************************
Encoder ..........: SwaG11
Video Codec.......:AVC
Video Bitrate.....: 3 501 Kbps
Audio Codec.......: AC-3
Audio Bitrate.....:384 Kbps
Resolution........:1280x528
Runtime...........:1h 41mn
Release Date......:27/04/12
Theatre Date......:7.0
Language..........:English Dubbed mono
Subtitles.........:N/A
IMDB Rating.......:7.0
IMDb URL..........:http://www.imdb.com/title/tt0077559/
_______________________________________________________________________________
General
Unique ID : 230661472600402584925972369367544040546 (0xAD87C8A133E06B65AAB91C4FFA430C62)
Complete name : C:UsersdpcDocumentstorrenfilesThe.5.Deadly.Venoms.1978.720p.BRRIP.x264.AC3.CrEwSaDeThe.5.Deadly.Venoms.1978.720p.BRRIP.x264.AC3.CrEwSaDe.mkv
Format : Matroska
Format version : Version 2
File size : 2.48 GiB
Duration : 1h 41mn
Overall bit rate : 3 501 Kbps
Encoded date : UTC 2012-04-26 05:52:44
Writing application : mkvmerge v5.2.1 ('A Far Off Place') built on Jan 2 2012 23:21:10
Writing library : libebml v1.2.3 + libmatroska v1.3.0

________________________________________________________________________________

Video
ID : 1
Format : AVC
Format/Info : Advanced Video Codec
Format profile : High@L3.1
Format settings, CABAC : Yes
Format settings, ReFrames : 4 frames
Codec ID : V_MPEG4/ISO/AVC
Duration : 1h 41mn
Bit rate : 3 115 Kbps
Width : 1 280 pixels
Height : 528 pixels
Display aspect ratio : 2.40:1
Frame rate : 23.976 fps
Color space : YUV
Chroma subsampling : 4:2:0
Bit depth : 8 bits
Scan type : Progressive
Bits/(Pixel*Frame) : 0.192
Stream size : 2.16 GiB (87%)
Writing library : x264 core 120 r2164 da19765
Encoding settings : cabac=1 / ref=3 / deblock=1:0:0 / analyse=0x3:0x113 / me=hex / subme=7 / psy=1 / psy_rd=1.00:0.00 / mixed_ref=1 / me_range=16 / chroma_me=1 / trellis=1 / 8x8dct=1 / cqm=0 / deadzone=21,11 / fast_pskip=1 / chroma_qp_offset=-2 / threads=12 / sliced_threads=0 / nr=0 / decimate=1 / interlaced=0 / bluray_compat=0 / constrained_intra=0 / bframes=3 / b_pyramid=2 / b_adapt=1 / b_bias=0 / direct=1 / weightb=1 / open_gop=0 / weightp=2 / keyint=240 / keyint_min=23 / scenecut=40 / intra_refresh=0 / rc_lookahead=40 / rc=2pass / mbtree=1 / bitrate=3115 / ratetol=1.0 / qcomp=0.60 / qpmin=0 / qpmax=69 / qpstep=4 / cplxblur=20.0 / qblur=0.5 / ip_ratio=1.40 / aq=1:1.00
Default : Yes
Forced : No

_________________________________________________________________________________

Audio
ID : 2
Format : AC-3
Format/Info : Audio Coding 3
Mode extension : CM (complete main)
Codec ID : A_AC3
Duration : 1h 41mn
Bit rate mode : Constant
Bit rate : 384 Kbps
Channel(s) : 2 channels
Channel positions : Front: L R
Sampling rate : 48.0 KHz
Bit depth : 16 bits
Compression mode : Lossy
Stream size : 279 MiB (11%)
Default : Yes
Forced : No

_________________________________________________________________________________
Screens:
image
image
image
[color=red]Youtube Trailer:

[video=http://www.youtube.com/watch?v=MrzWxd4-v8c]
_________________________________________________________________________________
Sample Included

Related Torrents

torrent name size files age seed leech

Sharing Widget


Download torrent
2.51 GB
seeders:1
leechers:0
The 5 Deadly Venoms 1978 720p BRRIP x264 AC3



To share this torrent use the code below and insert it into comments, status messages, forum posts or your signature.

Torrent: The 5 Deadly Venoms 1978 720p BRRIP x264 AC3

Trackers

tracker name
udp://tracker.publicbt.com:80/announce
http://t1.pow7.com/announce
udp://tracker.openbittorrent.com:80/announce
http://10.rarbg.com/announce
udp://open.demonii.com:1337/announce
udp://tracker.istole.it:80/announce
http://getyourpopcorn.net:2711/announce
udp://fr33domtracker.h33t.com:3310/announce
µTorrent compatible trackers list

Locations

name
KickassTorrents
Torrent hash: 61E998C4E9B8B408EF3B65761A936842DFD640C7

Uploader Comments

0
bladereap3r6218
Uploader
I've been AFK due to an illness. And my Server has received hardware maintenance as well. My Server is now back online. Sorry for the interruption.
0
bladereap3r6218
Uploader
audio: 8video: 9
Sharing...this one dubbed with Eng Audio - good view! - my thankx to the encoder.

All Comments

audio
8/10
video
9/10
please, leave only comments related to that torrent
Sign In

I've been AFK due to an illness. And my Server has received hardware maintenance as well. My Server is now back online. Sorry for the interruption.
Thanks.. been looking for Eng dub
audio: 8video: 9
Sharing...this one dubbed with Eng Audio - good view! - my thankx to the encoder.

User Opinions

Report a bug