Superman vs The Elite (2012) DVDRip-MaD

seeders: 0
leechers: 0
updated:
Added by UsaBit214.24K in Movies
Torrent verified. Downloaded 10 times.

  • add Superman vs. The Elite to bookmarks
  • Release date: 12 June 2012
  • Writers: Jerry Siegel (creator), Joe Shuster (creator), Joe Kelly (story), Doug Mahnke (story), Lee Bermejo (story), Joe Kelly
  • Language: English
Summary:

The Man of Steel finds himself outshone by a new team of ruthless superheroes who hold his idealism in contempt.

Written by MIke173450
Available in versions: 1080p720pHDRiPDVDRip
Superman vs The Elite (2012) DVDRip-MaD (Size: 702.61 MB)
  Superman vs The Elite (2012) DVDRip-MaD.mkv 702.61 MB
  www.UsaBit.com.txt 1 bytes

Description

image

The Man of Steel finds himself outshone by a new team of ruthless superheroes who hold his idealism in contempt.

Format : Matroska
Format version : Version 2
File size : 703 MiB
Duration : 1h 14mn
Overall bit rate : 1 325 Kbps
Movie name : Superman vs. The Elite (2012).Title1.DVDRip
Encoded date : UTC 2012-06-03 03:02:45
Writing application : DVDFab
Writing library : libebml v0.7.8 + libmatroska v0.8.1

Video
ID : 1
Format : AVC
Format/Info : Advanced Video Codec
Format profile : Main@L3.0
Format settings, CABAC : Yes
Format settings, ReFrames : 2 frames
Codec ID : V_MPEG4/ISO/AVC
Duration : 1h 14mn
Bit rate : 1 107 Kbps
Width : 704 pixels
Height : 396 pixels
Display aspect ratio : 16:9
Frame rate : 23.976 fps
Color space : YUV
Chroma subsampling : 4:2:0
Bit depth : 8 bits
Scan type : Progressive
Bits/(Pixel*Frame) : 0.166
Stream size : 587 MiB (84%)
Writing library : x264 core
Default : Yes
Forced : No
Color primaries : BT.601-6 525, BT.1358 525, BT.1700 NTSC, SMPTE 170M
Transfer characteristics : BT.709-5, BT.1361
Matrix coefficients : BT.601-6 525, BT.1358 525, BT.1700 NTSC, SMPTE 170M

Audio
ID : 2
Format : AC-3
Format/Info : Audio Coding 3
Mode extension : CM (complete main)
Format settings, Endianness : Big
Codec ID : A_AC3
Duration : 1h 14mn
Bit rate mode : Constant
Bit rate : 192 Kbps
Channel(s) : 2 channels
Channel positions : Front: L R
Sampling rate : 48.0 KHz
Bit depth : 16 bits
Compression mode : Lossy
Stream size : 102 MiB (14%)
Default : Yes
Forced : No


image

image

image

Related Torrents

torrent name size files age seed leech

Sharing Widget


Download torrent
702.61 MB
seeders:0
leechers:0
Superman vs The Elite (2012) DVDRip-MaD



To share this torrent use the code below and insert it into comments, status messages, forum posts or your signature.

Torrent: Superman vs The Elite (2012) DVDRip-MaD

Trackers

tracker name
udp://tracker.openbittorrent.com:80/announce
udp://tracker.publicbt.com:80/announce
http://tracker.ex.ua/announce
http://ipv4.tracker.harry.lu/announce
udp://tracker.istole.it:80/announce
http://tracker.torrentbay.to:6969/announce
udp://11.rarbg.com:80/announce
http://exodus.desync.com:6969/announce
http://fr33dom.h33t.com:3310/announce
udp://fr33domtracker.h33t.com:3310/announce
µTorrent compatible trackers list

Locations

name
KickassTorrents
Torrent hash: 91AC5D8AD2B8A4E2DA06CA551AFBE8F01F828E27

All Comments

audio
9/10
video
9/10
please, leave only comments related to that torrent
Sign In

audio: 8video: 8
Very nice movie.
audio: 9video: 9
Nice Quality!
audio: 10video: 10
it was a great copy, no complaints. thank you.
audio: 10video: 10
thank you for sharring
audio: 10video: 10
Great Upload Thanx
audio: 8video: 8
not such a great quality ...good story
audio: 9video: 8
Thank You Very Much.

User Opinions

WhiteMagic5430, DjKimoni4075, TruBiniz3098, Rockstar Games™1547, TheThirdMark1393, The-Beholder862, ciris636, gonen20254, ibtmj23215, ZeroOne2663 ... And 8 more
sasuke358177
Report a bug