Stealing Beauty DVDRip Xvid LKRG

seeders: 8
leechers: 1
updated:
Added by fasamoo18.71K in Movies
Torrent verified. Downloaded 476 times.

Summary:

After her mother commits suicide, nineteen year old Lucy Harmon travels to Italy to have her picture painted. However, she has other reasons for wanting to go. She wants to renew her acquaintance with Nicolo Donati, a young boy with whom she fell in love on her last visit four years ago. She also is trying tosolve the riddle left in a diary written by her dead mother, Sara.

Written by Anette14150.4K
Available in versions: 720pHDRiPDVDRip
Stealing Beauty DVDRip Xvid LKRG (Size: 750.47 MB)
  Stealing Beauty DVDRip Xvid LKRG.avi 750.28 MB
  Stealing Beauty DVDRip Xvid LKRG.srt 181.14 KB
  LKRG_NFO.nfo 9.67 KB
  Torrent downloaded from Extratorrent.txt 116 bytes

Description

35479888765162359146.png



Stealing Beauty (1996)



After her mother commits suicide, nineteen year old Lucy Harmon travels to Italy to have her picture painted. However, she has other reasons for wanting to go. She wants to renew her acquaintance with Nicolo Donati, a young boy with whom she fell in love on her last visit four years ago. She also is trying tosolve the riddle left in a diary written by her dead mother, Sara.



Format : AVI

Format/Info : Audio Video Interleave

File size : 750 MiB

Duration : 1h 58mn

Overall bit rate : 888 Kbps

Writing application : VirtualDubMod 1.5.4.1 (build 2178/release)

Writing library : VirtualDubMod build 2178/release

Language : English

Subtitles : English(*.srt)

Genre: Drama | Romance



Video

ID : 0

Format : MPEG-4 Visual

Format profile : Advanced Simple@L5

Format settings, BVOP : Yes

Format settings, QPel : No

Format settings, GMC : No warppoints

Format settings, Matrix : Custom

Codec ID : XVID

Codec ID/Hint : XviD

Duration : 1h 58mn

Bit rate : 761 Kbps

Width : 624 pixels

Height : 272 pixels

Display aspect ratio : 2.25:1

Frame rate : 23.976 fps

Color space : YUV

Chroma subsampling : 4:2:0

Bit depth : 8 bits

Scan type : Progressive

Bits/(Pixel*Frame) : 0.187

Stream size : 643 MiB (86%)

Writing library : XviD 1.2.1 (UTC 2008-12-04)



Audio

ID : 1

Format : MPEG Audio

Format version : Version 1

Format profile : Layer 3

Mode : Joint stereo

Mode extension : MS Stereo

Codec ID : 55

Codec ID/Hint : MP3

Duration : 1h 58mn

Bit rate mode : Variable

Bit rate : 114 Kbps

Nominal bit rate : 128 Kbps

Channel(s) : 2 channels

Sampling rate : 48.0 KHz

Stream size : 96.2 MiB (13%)

Alignment : Aligned on interleaves

Interleave, duration : 24 ms (0.58 video frame)

Interleave, preload duration : 161 ms

Writing library : LAME3.98r

Encoding settings : -m j -V 4 -q 2 -lowpass 17 --abr 128




06402331866564276672.png

26833875022383387783.png

03761390004473515596.png

26251603174185731530.png

18995352341741440901.png

08506284671788948778.png











c9Swm7mw.jpeg

http://www.imdb.com/title/tt0117737/



97913465899887526311.png

Related Torrents

torrent name size files age seed leech

Sharing Widget


Download torrent
750.47 MB
seeders:8
leechers:1
Stealing Beauty DVDRip Xvid LKRG



To share this torrent use the code below and insert it into comments, status messages, forum posts or your signature.

Torrent: Stealing Beauty DVDRip Xvid LKRG

Trackers

tracker name
http://nemesis.1337x.org/announce
udp://tracker.openbittorrent.com:80/announce
udp://tracker.publicbt.com:80/announce
udp://tracker.istole.it:80/announce
http://pow7.com/announce
udp://tracker.coppersurfer.tk:6969/announce
udp://glotorrents.pw:6969/announce
udp://tracker.1337x.org:80/announce
udp://tracker.ccc.de:80/announce
udp://fr33domtracker.h33t.com:3310/announce
µTorrent compatible trackers list

Locations

name
KickassTorrents
ThePirateBay
1337x
Fenopy
ExtraTorrent
Limetorrents
Torrent hash: d5a633d147d88520044579b6a7a5e0390b4e354f

Top Comments

2
Twano111
Liv Tyler ind a Bertolucci movie. Perfect..

All Comments

audio
8/10
video
8/10
please, leave only comments related to that torrent
Sign In

audio: 8video: 8
Good torrent ! biggrin
audio: 8video: 8
good dl
audio: 6video: 7
Thanks
audio: 8video: 8
Thanks uploader!!
audio: 8video: 8
decent quality
audio: 9video: 9
thanks, awesome copy
Show More All

User Opinions

zingalvs19.96K, VesperCullen2996, mop_66662468, killy69919, Mastero406, JMS301404, tanveer131291, Gastrilis276, direggor145, 1marcus130 ... And 121 more
pranaydipto288, WahidBitar287, Torya75, kerema51
Report a bug