Spartacus Season 4 Episode 7 War Of The Damned AGAIG

seeders: 0
leechers: 1
updated:
Added by gustofusion892 in TV
Downloaded 70 times.

Spartacus Season 4 Episode 7 War Of The Damned AGAIG (Size: 939.39 MB)
  AGAIG.txt 704 bytes
  Mors Indecepta.mp4 921.27 MB
  sample.mp4 17.58 MB
  screen1.jpg 81.27 KB
  screen2.jpg 54.3 KB
  screen3.jpg 75.65 KB
  screen4.jpg 79.45 KB
  Screen5.jpg 47.76 KB
  screen6.jpg 93.6 KB
  Previous Episodes

Description

image
image
image
image
image
image

Spartacus Season 4 Episode 7 War Of The Damned AGAIG\Mors Indecepta.mp4
Format : MPEG-4
Format profile : Base Media
Codec ID : isom
File size : 921 MiB
Duration : 51mn 34s
Overall bit rate : 2 497 Kbps
Writing application : RazorEncoder

Video
ID : 1
Format : AVC
Format/Info : Advanced Video Codec
Format profile : High@L4.0
Format settings, CABAC : Yes
Format settings, ReFrames : 4 frames
Codec ID : avc1
Codec ID/Info : Advanced Video Coding
Duration : 51mn 34s
Bit rate : 2 400 Kbps
Width : 1 280 pixels
Height : 720 pixels
Display aspect ratio : 16:9
Frame rate mode : Constant
Frame rate : 59.940 fps
Color space : YUV
Chroma subsampling : 4:2:0
Bit depth : 8 bits
Scan type : Progressive
Bits/(Pixel*Frame) : 0.043
Stream size : 886 MiB (96%)
Writing library : x264 core 128 r2216 198a7ea
Encoding settings : cabac=1 / ref=3 / deblock=1:-1:-1 / analyse=0x3:0x113 / me=hex / subme=7 / psy=1 / psy_rd=1.00:0.15 / mixed_ref=1 / me_range=16 / chroma_me=1 / trellis=1 / 8x8dct=1 / cqm=0 / deadzone=21,11 / fast_pskip=1 / chroma_qp_offset=-3 / threads=12 / lookahead_threads=2 / sliced_threads=0 / nr=0 / decimate=1 / interlaced=0 / bluray_compat=0 / constrained_intra=0 / bframes=3 / b_pyramid=2 / b_adapt=1 / b_bias=0 / direct=1 / weightb=1 / open_gop=0 / weightp=2 / keyint=250 / keyint_min=25 / scenecut=40 / intra_refresh=0 / rc_lookahead=40 / rc=2pass / mbtree=1 / bitrate=2400 / ratetol=1.0 / qcomp=0.60 / qpmin=0 / qpmax=69 / qpstep=4 / cplxblur=20.0 / qblur=0.5 / ip_ratio=1.40 / aq=1:1.00

Audio
ID : 2
Format : AAC
Format/Info : Advanced Audio Codec
Format profile : HE-AAC / LC
Codec ID : 40
Duration : 51mn 34s
Bit rate mode : Constant
Bit rate : 86.6 Kbps
Channel(s) : 2 channels
Channel positions : Front: L R
Sampling rate : 48.0 KHz / 24.0 KHz
Compression mode : Lossy
Delay relative to video : 33ms
Stream size : 32.0 MiB (3%)

Related Torrents

torrent name size files age seed leech

Sharing Widget


Download torrent
939.39 MB
seeders:0
leechers:1
Spartacus Season 4 Episode 7 War Of The Damned AGAIG



To share this torrent use the code below and insert it into comments, status messages, forum posts or your signature.

Torrent: Spartacus Season 4 Episode 7 War Of The Damned AGAIG

Trackers

tracker name
udp://tracker.publicbt.com:80/announce
udp://tracker.istole.it:80/announce
udp://tracker.openbittorrent.com:80/announce
udp://tracker.ccc.de:80/announce
udp://fr33domtracker.h33t.com:3310/announce
ĀµTorrent compatible trackers list

Locations

name
KickassTorrents
Torrent hash: F6B24404020019B17090C7C9209EB04E4B3ED6D9

All Comments

audio
9/10
video
9/10
please, leave only comments related to that torrent
Sign In

audio: 10video: 10
Excellent A/V. Thanks!
audio: 10video: 10
new series please
audio: 9video: 9
Thanks
audio: 10video: 10
Season 3 episode 7. Great download. Fast. Everything is spot on except the label. Download this and enjoy. :-)
This is season 3 huffy gustofusionfunk
audio: 10video: 10
Excellent, thank you.
audio: 10video: 10
Thanks Uploader!!!
audio: 10video: 10
Great
you have to be patient for seeds...someone has to start...there are plenty now


User Opinions

Boss4boss3478, bwwcom11106, jzalomon959, ANDR_FER928, Kyls624, talhashabbir594, athikhoni587, stevieallison440, anightfire181, cobra94159 ... And 53 more
sulo32350, NIDZAAAAA239
Report a bug