Spartacus Season 4 Episode 6 War Of The Damned AGAIG

seeders: 1
leechers: 2
updated:
Added by gustofusion891 in TV
Downloaded 48 times.

Spartacus Season 4 Episode 6 War Of The Damned AGAIG (Size: 983.59 MB)
  AGAIG.txt 712 bytes
  EP 6 Spoils Of War.mp4 965.05 MB
  sample.mp4 18.11 MB
  screen1.jpg 52.75 KB
  screen2.jpg 89.87 KB
  screen3.jpg 40.67 KB
  screen4.jpg 50.22 KB
  Screen5.jpg 54.71 KB
  screen6.jpg 51.61 KB
  Previous Episodes

Description

image
image
image
image
image
image

Episode 6 War Of The Damned AGAIG\EP 6 Spoils Of War.mp4
Format : MPEG-4
Format profile : Base Media
Codec ID : isom
File size : 965 MiB
Duration : 54mn 3s
Overall bit rate : 2 496 Kbps
Writing application : RazorEncoder

Video
ID : 1
Format : AVC
Format/Info : Advanced Video Codec
Format profile : High@L4.0
Format settings, CABAC : Yes
Format settings, ReFrames : 4 frames
Codec ID : avc1
Codec ID/Info : Advanced Video Coding
Duration : 54mn 2s
Bit rate : 2 400 Kbps
Width : 1 280 pixels
Height : 720 pixels
Display aspect ratio : 16:9
Frame rate mode : Constant
Frame rate : 59.940 fps
Color space : YUV
Chroma subsampling : 4:2:0
Bit depth : 8 bits
Scan type : Progressive
Bits/(Pixel*Frame) : 0.043
Stream size : 928 MiB (96%)
Writing library : x264 core 128 r2216 198a7ea
Encoding settings : cabac=1 / ref=3 / deblock=1:-1:-1 / analyse=0x3:0x113 / me=hex / subme=7 / psy=1 / psy_rd=1.00:0.15 / mixed_ref=1 / me_range=16 / chroma_me=1 / trellis=1 / 8x8dct=1 / cqm=0 / deadzone=21,11 / fast_pskip=1 / chroma_qp_offset=-3 / threads=12 / lookahead_threads=2 / sliced_threads=0 / nr=0 / decimate=1 / interlaced=0 / bluray_compat=0 / constrained_intra=0 / bframes=3 / b_pyramid=2 / b_adapt=1 / b_bias=0 / direct=1 / weightb=1 / open_gop=0 / weightp=2 / keyint=250 / keyint_min=25 / scenecut=40 / intra_refresh=0 / rc_lookahead=40 / rc=2pass / mbtree=1 / bitrate=2400 / ratetol=1.0 / qcomp=0.60 / qpmin=0 / qpmax=69 / qpstep=4 / cplxblur=20.0 / qblur=0.5 / ip_ratio=1.40 / aq=1:1.00

Audio
ID : 2
Format : AAC
Format/Info : Advanced Audio Codec
Format profile : HE-AAC / LC
Codec ID : 40
Duration : 54mn 3s
Bit rate mode : Constant
Bit rate : 86.4 Kbps
Channel(s) : 2 channels
Channel positions : Front: L R
Sampling rate : 48.0 KHz / 24.0 KHz
Compression mode : Lossy
Delay relative to video : 33ms
Stream size : 33.4 MiB (3%)

Related Torrents

torrent name size files age seed leech

Sharing Widget


Download torrent
983.59 MB
seeders:3
leechers:3
Spartacus Season 4 Episode 6 War Of The Damned AGAIG



To share this torrent use the code below and insert it into comments, status messages, forum posts or your signature.

Torrent: Spartacus Season 4 Episode 6 War Of The Damned AGAIG

Trackers

tracker name
udp://tracker.publicbt.com:80/announce
udp://tracker.istole.it:80/announce
udp://tracker.openbittorrent.com:80/announce
udp://fr33domtracker.h33t.com:3310/announce
udp://tracker.ccc.de:80/announce
µTorrent compatible trackers list

Locations

name
KickassTorrents
Torrent hash: 4DAD50AB66944AA32E36D50D60AA3E68B362E16F

All Comments

audio
9/10
video
9/10
please, leave only comments related to that torrent
Sign In

audio: 10video: 10
Excellent A/V. Thanks!
audio: 10video: 10
Spartacus awakens from the dead make a new series
This is season 3 huffy gustofusionfunk
audio: 10video: 10
Excellent, thank you!
audio: 9video: 9
Good
more seeds people

User Opinions

Boss4boss3478, bwwcom11106, ANDR_FER928, jzalomon925, Kyls624, talhashabbir594, athikhoni587, Blood_Lion277, anightfire181, cobra94142 ... And 63 more
sulo32348, Captainspunk106
Report a bug