Small Apartments 2012 DVDRip XviD juggs

seeders: 8
leechers: 3
updated: 16 hours ago
Added on Feb 23, 2013 by ETRG546.36K in Movies
Torrent verified. Downloaded 10 times.

Summary:
A man is surrounded by strange events and odd neighbors in this adaptation of Chris Millis' novel.
Written by MoonChild13.54K
report summary
Available in versions: 720pHDRiPDVDDVDRip
Small Apartments 2012 DVDRip XviD juggs (Size: 711.19 MB)
  sample.avi 9.16 MB
  Small Apartments 2012 DVDRip XviD juggs.avi 702.03 MB
  Torrent downloaded from extratorrent.com.txt 339 bytes

Description

image


Format : AVI
Format/Info : Audio Video Interleave
File size : 702 MiB
Duration : 1h 36mn
Overall bit rate : 1 022 Kbps
Writing library : VirtualDub build 32842/release

Video
ID : 0
Format : MPEG-4 Visual
Format profile : Advanced Simple@L5
Format settings, BVOP : 4
Format settings, QPel : No
Format settings, GMC : No warppoints
Format settings, Matrix : Default (H.263)
Muxing mode : Packed bitstream
Codec ID : XVID
Codec ID/Hint : XviD
Duration : 1h 36mn
Bit rate : 885 Kbps
Width : 640 pixels
Height : 336 pixels
Display aspect ratio : 1.905
Frame rate : 23.976 fps
Color space : YUV
Chroma subsampling : 4:2:0
Bit depth : 8 bits
Scan type : Progressive
Compression mode : Lossy
Bits/(Pixel*Frame) : 0.172
Stream size : 608 MiB (87%)
Writing library : XviD 64

Audio
ID : 1
Format : MPEG Audio
Format version : Version 1
Format profile : Layer 3
Codec ID : 55
Codec ID/Hint : MP3
Duration : 1h 36mn
Bit rate mode : Constant
Bit rate : 128 Kbps
Channel(s) : 2 channels
Sampling rate : 44.1 KHz
Compression mode : Lossy
Stream size : 87.9 MiB (13%)
Alignment : Split accross interleaves
Interleave, duration : 42 ms (1.00 video frame)
Interleave, preload duration : 500 ms
Writing library : LAME3.99r
Encoding settings : -m s -V 4 -q 3 -lowpass 17 -b 128

Plot
A man is surrounded by strange events and odd neighbors in this adaptation of Chris Millis' novel.


image
image
image

[embed=youtube]http://www.youtube.com/watch?v=-0t_m6khv_A[/embed]

Sharing Widget


Download torrent
711.19 MB
seeders:8
leechers:3
Small Apartments 2012 DVDRip XviD juggs

Trackers

tracker name Status
udp://9.rarbg.com:2710/announce
outdated
udp://open.demonii.com:1337/announce
outdated
udp://tracker.openbittorrent.com:80/announce
outdated
udp://tracker.publicbt.com:80/announce
outdated
udp://tracker.istole.it:80/announce
outdated
http://fr33dom.h33t.com:3310/announce
deleted
udp://fr33dom.h33t.com:3310/announce
deleted
http://tracker.coppersurfer.tk:6969/announce
deleted
udp://fr33domtracker.h33t.com:3310/announce
deleted
udp://ipv4.tracker.harry.lu:80/announce
active
ĀµTorrent compatible trackers list

Locations

name
KickassTorrents
ThePirateBay
ExtraTorrent
Torrent hash: BCC2B477EE9D647002D84783F1AE848D1C9F563C

All Comments

audio
8/10
video
8/10
please, leave only comments related to that torrent
or sign-in

0
Rodribode731 • 17 May 2015, 18:30
torrent downloaded
Show comment
audio: 8video: 8
thanks a lot juggs, great quality as usual, very interesting movie.
0
theauthor651 • 13 Feb 2015, 22:51
torrent downloaded
Show comment
audio: 10video: 10
Great Movie worth watching.
0
LadyJustice3149 • 13 Apr 2014, 22:11
torrent downloaded
Show comment
audio: 9video: 9
thanks :}
0
eric608611197 • 16 Oct 2013, 13:37
torrent downloaded
Show comment
audio: 8video: 8
audio and video are ok! Thanks for the share!!!
0
toxxico4432 • 15 Oct 2013, 01:04
torrent downloaded
Show comment
audio: 8video: 8
thanx
0
SirSmokeAlot!846 • 20 Aug 2013, 22:46
torrent downloaded
Show comment
audio: 9video: 9
Nice 1 up-loader, pretty strange movie to say the least! Very good copy though...
0
Defeatedfrog709 • 01 Aug 2013, 07:15
torrent downloaded
Show comment
You need to watch it twice to get it. Then you'll think, "oh yeah, that was interesting, weird and funny".
0
caz7851049 • 28 Jul 2013, 07:44
torrent downloaded
Show comment
Great
0
landamiaw2745 • 12 Jul 2013, 05:33
torrent downloaded
Show comment
audio: 8video: 8
thanks
Show More All
0
adidash45947 • 10 Jul 2013, 23:25
torrent downloaded
Show comment
audio: 8video: 8

User Opinions

olliebollie6268, Rockster0015639, M.212646, ClearBlueSky1922, spun11782, ricta1183, cherip631153, Defeatedfrog709, romrotten308, andreittk165 ... And 104 more
1stLadyAjavon2693, canuckoos1364, Cool_Guy_771017, erdembab751, lees35lakers57, CoziestNinja43
Report a bug