Skyfall 2012 TS XViD UNiQUE

seeders: 63
leechers: 4
Added on Nov 12, 2012 by Acesn8s89.84K in Movies
Torrent verified. Downloaded 6,534 times.

Summary:
Bond's loyalty to M is tested when her past comes back to haunt her. Whilst MI6 comes under attack, 007 must track down and destroy the threat, no matter how personal the cost.
Written by DeadShot10144.11K
report summary
Skyfall 2012 TS XViD UNiQUE (Size: 1.46 GB)
  sample.avi 18.86 MB
  sample2.avi 14.8 MB
  Skyfall 2012 TS XViD UNiQUE.avi 1.43 GB
  Skyfall 2012 TS XViD UNiQUE.nfo 2.02 KB
  Torrent downloaded from extratorrent.com.txt 339 bytes

Description

image


why be the same as everyone else when YOU can be UNiQUE
Format : AVI
Format/Info : Audio Video Interleave
File size : 1.43 GiB
Duration : 2h 17mn
Overall bit rate : 1 487 Kbps
Writing application : VirtualDubMod 1.5.10.2 (build 2540/release)
Writing library : VirtualDub build 34807/release

Video
ID : 0
Format : MPEG-4 Visual
Format profile : Advanced Simple@L5
Format settings, BVOP : 2
Format settings, QPel : No
Format settings, GMC : No warppoints
Format settings, Matrix : Default (H.263)
Muxing mode : Packed bitstream
Codec ID : XVID
Codec ID/Hint : XviD
Duration : 2h 17mn
Bit rate : 1 349 Kbps
Width : 640 pixels
Height : 272 pixels
Display aspect ratio : 2.35:1
Frame rate : 25.000 fps
Color space : YUV
Chroma subsampling : 4:2:0
Bit depth : 8 bits
Scan type : Progressive
Compression mode : Lossy
Bits/(Pixel*Frame) : 0.310
Stream size : 1.29 GiB (91%)
Writing library : XviD 64

Audio
ID : 1
Format : MPEG Audio
Format version : Version 1
Format profile : Layer 3
Codec ID : 55
Codec ID/Hint : MP3
Duration : 2h 17mn
Bit rate mode : Constant
Bit rate : 128 Kbps
Channel(s) : 2 channels
Sampling rate : 48.0 KHz
Compression mode : Lossy
Stream size : 126 MiB (9%)
Alignment : Split accross interleaves
Interleave, duration : 40 ms (1.00 video frame)
Interleave, preload duration : 500 mshttp://www.imdb.com/title/tt1074638/ http://www.imdb.com/title/tt1074638/

Ratings: 8.1/10 from 81,973 users Metascore: 81/100
Reviews: 586 user | 269 critic | 43 from Metacritic.com

Bond's loyalty to M is tested as her past comes back to haunt her. As MI6 comes under attack, 007 must track down and destroy the threat, no matter how personal the cost.

Director:
Sam Mendes
Writers:
Neal Purvis, Robert Wade, and 2 more credits »
Stars:
Daniel Craig, Javier Bardem and Naomie Harris | See full cast and crew

Source Used

Video............iLG...........Thanks Audio..............Jiinxy...............Thanks bro


image
image
image

imageimageimage

Related Torrents

torrent name size files age seed leech

Sharing Widget


Download torrent
1.46 GB
seeders:63
leechers:4
Skyfall 2012 TS XViD UNiQUE

Trackers

tracker name Status checked seeders leechers downloads
udp://9.rarbg.com:2710/announce
active 07 May 2015 31 4 28
udp://tracker.openbittorrent.com:80/announce
active 07 May 2015 63 4 10
udp://tracker.publicbt.com:80/announce
outdated 05 Mar 2014 - - -
udp://tracker.istole.it:80/announce
outdated 05 Mar 2014 - - -
http://exodus.desync.com:6969/announce
blocked 25 Jun 2013 - - -
udp://fr33dom.h33t.com:3310/announce
deleted 25 Jun 2013 - - -
udp://www.h33t.com:3310/announce
deleted 25 Jun 2013 - - -
udp://fr33domtracker.h33t.com:3310/announce
deleted 25 Jun 2013 - - -
http://coppersurfer.tk:6969/announce
pending 05 Mar 2014 178 35 166
µTorrent compatible trackers list

Locations

name
KickassTorrents
ThePirateBay
ExtraTorrent
Torrent hash: 6D7882C59D6555283745F31E0492AC8D041132A1

Top Comments

36
LAZARGR199140 • 14 Nov 2012, 22:35
audio: 6video: 7
hi I JUST DOWNLOAD THE MOVIE IS A GOOD COPY FOR CAMERA VIDEO 7 AUDIO 7 IT IS WATSABLE One of the best cams I have seen in a while.
30
anonymous • 15 Nov 2012, 00:03
audio: 7video: 9
legit. Unreal cam qulity tbh. Of course a dvd rip is the best but this is very watchable. thank you for your efforts.
21
_HD_3066 • 15 Nov 2012, 04:04
torrent downloaded
audio: 8video: 8
GOOD PRINT MATEbiggrinloveliness

All Comments

audio
7/10
video
7/10
please, leave only comments related to that torrent
or sign-in
1
anonymous • 01 March 2014, 14:53 Show comment
audio: 7video: 5
Not as good as a dvd rip by far... I'd rather download that. Was annoyed by the lighting, and when the movie goes dark, you can't see a thing.
0
Mohammed2040113 • 14 February 2014, 03:17 Show comment
Good Like
0
qball69777 • 01 December 2013, 14:36
torrent downloaded
Show comment
audio: 7video: 7
OK Movie....thanks uploader
0
tHOr1274 • 30 May 2013, 05:03 Show comment
wew.!!
0
Abhishek986911.62K • 15 March 2013, 11:18
torrent downloaded
Show comment
audio: 6video: 6
thanks for the share..:)biggrin
0
RedLycan22.43K • 15 March 2013, 09:21
torrent downloaded
Show comment
audio: 6video: 6
0
Toufreaq3643 • 14 March 2013, 21:15
torrent downloaded
Show comment
audio: 6video: 6
Show More All

User Opinions

mosthated24912487, sommelier1546, godslinux975, jssc759, skippyuk739, vip_becks7363, shadabtorrent305, drmansoor212, r6nut54, Martika49 ... And 2870 more
Lumos721, krishnathota356, rushie251, severance666137, sidpistol94, extremKTM33, mindcatcher4725, eduard969, mikeve3, tommytastie2 ... And 254 more
Report a bug