Sin City [2005] Theatrical Cut 720p BRRip H264 AC3 - CODY

seeders: 0
leechers: 0
updated:
Added in Movies > Highres Movies
Torrent verified. Downloaded 10 times.

Summary:

A film that explores the dark and miserable town, Basin City, and tells the story of three different people, all caught up in violent corruption.

Written by 5fingerdis65.67K
Available in versions: 1080p720pBDRipHDRiPDVDDVDRipx265
Sin City [2005] Theatrical Cut 720p BRRip H264 AC3 - CODY (Size: 2.24 GB)
  Cover.jpg 154.28 KB
  Info_by_Cody.txt 7.34 KB
  Sin City [2005] Theatrical Cut 720p BRRip H264 AC3 - CODY.Bulgarian.srt 155.14 KB
  Sin City [2005] Theatrical Cut 720p BRRip H264 AC3 - CODY.Chinese.srt 119.96 KB
  Sin City [2005] Theatrical Cut 720p BRRip H264 AC3 - CODY.Czech.srt 124.61 KB
  Sin City [2005] Theatrical Cut 720p BRRip H264 AC3 - CODY.Dutch.srt 141.14 KB
  Sin City [2005] Theatrical Cut 720p BRRip H264 AC3 - CODY.English.srt 127.17 KB
  Sin City [2005] Theatrical Cut 720p BRRip H264 AC3 - CODY.English_HearingImpaired.srt 132.5 KB
  Sin City [2005] Theatrical Cut 720p BRRip H264 AC3 - CODY.Finish.srt 120.84 KB
  Sin City [2005] Theatrical Cut 720p BRRip H264 AC3 - CODY.French.srt 124.33 KB
  Sin City [2005] Theatrical Cut 720p BRRip H264 AC3 - CODY.German.srt 129.61 KB
  Sin City [2005] Theatrical Cut 720p BRRip H264 AC3 - CODY.Greek.srt 174.19 KB
  Sin City [2005] Theatrical Cut 720p BRRip H264 AC3 - CODY.Hungarian.srt 107.89 KB
  Sin City [2005] Theatrical Cut 720p BRRip H264 AC3 - CODY.mp4 2.24 GB
  Sin City [2005] Theatrical Cut 720p BRRip H264 AC3 - CODY.Norwegian.srt 106.55 KB
  Sin City [2005] Theatrical Cut 720p BRRip H264 AC3 - CODY.Polish.srt 134.64 KB
  Sin City [2005] Theatrical Cut 720p BRRip H264 AC3 - CODY.Portuguese-Brazilian.srt 147.87 KB
  Sin City [2005] Theatrical Cut 720p BRRip H264 AC3 - CODY.Portuguese-Portugal.srt 122.45 KB
  Sin City [2005] Theatrical Cut 720p BRRip H264 AC3 - CODY.Slovenian.srt 124.58 KB
  Sin City [2005] Theatrical Cut 720p BRRip H264 AC3 - CODY.Spanish.srt 128.63 KB
  Sin City [2005] Theatrical Cut 720p BRRip H264 AC3 - CODY.srt 118.96 KB
  Sin City [2005] Theatrical Cut 720p BRRip H264 AC3 - CODY.Turkish.srt 128.03 KB
  Sin City [2005] Theatrical Cut 720p BRRip H264 AC3 - CODY.Vietnamese.srt 142.74 KB
  Torrent downloaded from Demonoid.me.txt 46 bytes

Description

General
Complete name : Sin City [2005] Theatrical Cut 720p BRRip H264 AC3 - CODY.mp4
Format : MPEG-4
Format profile : Base Media
Codec ID : isom
File size : 2.24 GiB
Duration : 2h 4mn
Overall bit rate mode : Variable
Overall bit rate : 2 581 Kbps
Encoded date : UTC 2012-05-06 03:08:07

Video
ID : 1
Format : AVC
Format/Info : Advanced Video Codec
Format profile : High@L4.1
Format settings, CABAC : Yes
Format settings, ReFrames : 5 frames
Codec ID : avc1
Codec ID/Info : Advanced Video Coding
Duration : 2h 4mn
Bit rate mode : Variable
Bit rate : 2 130 Kbps
Maximum bit rate : 20.0 Mbps
Width : 1 280 pixels
Height : 696 pixels
Display aspect ratio : 16:9
Frame rate mode : Constant
Frame rate : 23.976 fps
Color space : YUV
Chroma subsampling : 4:2:0
Bit depth : 8 bits
Scan type : Progressive
Bits/(Pixel*Frame) : 0.100
Stream size : 1.85 GiB (83%)
Writing library : x264 core 119 r2106 07efeb4
Encoding settings : rc=2pass

Audio
ID : 2
Format : AC-3
Format/Info : Audio Coding 3
Mode extension : CM (complete main)
Codec ID : ac-3
Duration : 2h 4mn
Bit rate mode : Constant
Bit rate : 448 Kbps
Channel(s) : 6 channels
Channel positions : Front: L C R, Side: L R, LFE
Sampling rate : 48.0 KHz
Bit depth : 16 bits
Compression mode : Lossy
Stream size : 398 MiB (17%)



IMDB link: http://www.imdb.com/title/tt0401792/


Subtittles included: Bulgarian, Chinese, Czech, Dutch, English, English for Hearing Impaired, Finnish, French, German, Greek, Hungarian, Norwegian, Polish, Portuguese-Brazilian, Portuguese-Portugal, Romanian, Slovenian, Spanish, Turkish, Vietnamese




Please seed at least 1,5:1 . This way this torrent has a chance to survive !!




Thanks . Enjoy !!

Related Torrents

torrent name size files age seed leech

Sharing Widget


Download torrent
2.24 GB
seeders:0
leechers:0
Sin City [2005] Theatrical Cut 720p BRRip H264 AC3 - CODY



To share this torrent use the code below and insert it into comments, status messages, forum posts or your signature.

Torrent: Sin City [2005] Theatrical Cut 720p BRRip H264 AC3 - CODY

Trackers

tracker name
udp://tracker.openbittorrent.com:80/announce
udp://tracker.istole.it:80/announce
udp://tracker.publicbt.com:80/announce
http://bt.firebit.org:2710/announce
http://inferno.demonoid.me:3389/announce
http://10.rarbg.com/announce
http://genesis.1337x.org:1337/announce
http://t1.pow7.com/announce
http://nemesis.1337x.org/announce
udp://fr33domtracker.h33t.com:3310/announce
ĀµTorrent compatible trackers list

Locations

name
ThePirateBay
Torrent hash: FB3BD354E7CDE89459E9F5148A91D7D72D146FF7

All Comments

audio
0/10
video
0/10
please, leave only comments related to that torrent
Sign In

please where can I find Arabic subtitles for this copy ? I'm tired looking for one :(

User Opinions

Report a bug