Shoot Em Up-Dual Audio(hindi-eng)DVDRip aaaevilacharya

seeders: 0
leechers: 0
updated:
Added in Movies
Torrent verified. Downloaded 10 times.

Shoot Em Up-Dual Audio(hindi-eng)DVDRip aaaevilacharya (Size: 683.71 MB)
  Shoot.Em.Up.Dual.Audio.aaaevilacharya.mkv 683.71 MB

Description




http://www.imdb.com/title/tt0465602/

General
Complete name : Shoot.Em.Up-Dual.Audio(hindi-eng)DVDRip.aaaevilacharya
Format : Matroska
File size : 684 MiB
Duration : 1h 26mn
Overall bit rate : 1 105 Kbps
Encoded date : UTC 2010-09-27 17:21:34
Writing library : libebml v0.7.7 + libmatroska v0.8.1

Video
ID : 1
Format : MPEG-4 Visual
Format profile : Simple@L1
Format settings, BVOP : No
Format settings, QPel : No
Format settings, GMC : No warppoints
Format settings, Matrix : Default (H.263)
Codec ID : DX50
Codec ID/Hint : DivX 5
Duration : 1h 26mn
Bit rate : 859 Kbps
Width : 702 pixels
Height : 292 pixels
Display aspect ratio : 2.35:1
Original display aspect ratio : 2.40:1
Frame rate : 23.976 fps
Color space : YUV
Chroma subsampling : 4:2:0
Bit depth : 8 bits
Scan type : Interlaced
Scan order : Top Field First
Bits/(Pixel*Frame) : 0.175
Stream size : 531 MiB (78%)
Title : aaaevilacharya
Writing library : Lavc52.30.1
Language : Hindi

Audio #1
ID : 2
Format : MPEG Audio
Format version : Version 1
Format profile : Layer 3
Mode : Joint stereo
Mode extension : MS Stereo
Codec ID : A_MPEG/L3
Codec ID/Hint : MP3
Duration : 1h 26mn
Bit rate mode : Constant
Bit rate : 112 Kbps
Channel(s) : 2 channels
Sampling rate : 32.0 KHz
Stream size : 69.3 MiB (10%)
Title : (H)aaaevilacharya
Writing library : LAME3.97 (beta)
Language : Hindi

Audio #2
ID : 3
Format : MPEG Audio
Format version : Version 1
Format profile : Layer 3
Mode : Joint stereo
Codec ID : A_MPEG/L3
Codec ID/Hint : MP3
Duration : 1h 26mn
Bit rate mode : Constant
Bit rate : 112 Kbps
Channel(s) : 2 channels
Sampling rate : 32.0 KHz
Stream size : 69.3 MiB (10%)
Title : (E)aaaevilacharya
Language : English

[/size]






Sharing Widget


Download torrent
683.71 MB
seeders:0
leechers:0
Shoot Em Up-Dual Audio(hindi-eng)DVDRip aaaevilacharya



To share this torrent use the code below and insert it into comments, status messages, forum posts or your signature.

Torrent: Shoot Em Up-Dual Audio(hindi-eng)DVDRip aaaevilacharya

Trackers

tracker name
udp://tracker.openbittorrent.com:80/announce
udp://tracker.publicbt.com:80/announce
http://10.rarbg.com/announce
http://pow7.com/announce
http://tracker.csze.com/announce
http://exodus.1337x.org/announce
http://tracker.ex.ua/announce
udp://tracker.torrentbox.com:2710/announce
http://tracker.openbittorrent.com/announce
http://11.rarbg.com/announce
http://tracker.publicbt.com/announce
http://genesis.1337x.org/announce
http://9.rarbg.com:2710/announce
http://tracker.torrentbox.com:2710/announce
http://torrent-download.to:5869/announce
ĀµTorrent compatible trackers list

Locations

name
ExtraTorrent
KickassTorrents
Torrent hash: bcfe2693e2a3cdec58ff2ff7a7cd0880eb661b88

All Comments

audio
10/10
video
10/10
please, leave only comments related to that torrent
Sign In

a/v 10 movie good thanks
audio video movie gooooooooooooooooooooooood
audio: 10video: 10
Time pass Movie Watch and enjoy Video Best 10/10 Audio 10/10
Thanks up-loader

User Opinions

Report a bug